Welcome Guest ( Log In | Register )

> 

Здесь релизы с живыми прямыми ссылками на lossless

 
Reply to this topicStart new topic
> Idolatry - In Nomine Mortis (2019), Black Metal
post Jun 9 2019, 00:18:03
Post #1

Правь статус, ####!111
**************
Group: Металариец
Posts: 21,947
Releases: 15142
From: Г.Харьков
On Forums: 8 years 3 weeks
Thanks: 274843 time(s)
Unknown


(IMG:https://metalarea.org/images/audiocovers/2019_Jun/acov_tid322837_thumb.jpg)

*Artist: Idolatry
*Album: In Nomine Mortis
*Year: 2019
*Genre: Black Metal
*Country: Canada (IMG:https://metalarea.org/forum/style_images/flags/Canada.png)
*Format: mp3@CBR320kbps
*Size: 101MB

Tracklist:
1. Ex Nihilio 01:27
2. Toward the Widening Eye 05:57
3. The Calling Void 03:22
4. Hail, Death 04:53
5. Reborn in Poison 06:01
6. Revelations in Black 03:38
7. Breathing Dust 04:53
8. Hidden; Quivering 04:34
9. The Serpentine Possession 06:27
10. Nihil Fit 02:18
******************************
Total playing time: 43:30




Extended info
Lycaon Vollmond Guitars
Daemonikus Abominor Drums
Tormentus Prometheon Bass
Ba'al Berith Vocals
Sludge Guitars



Technical info
(IMG:https://metalarea.org/images/spectrogram/2019_Jun/3b3cf0533d3fe9c14bf2266edf759c2c.png)
Input File: 04. Hail, Death.mp3
Channels : 2
Sample Rate : 44100
Precision : 16-bit
Duration : 00:04:53.95 = 12963151 samples = 22046.2 CDDA sectors
File Size : 11.9M
Bit Rate : 324k
Sample Encoding: MPEG audio (layer I, II or III)
Comments :
Title=Hail, Death
Artist=Idolatry
Album=In Nomine Mortis
Tracknumber=4
Year=2019
Discnumber=1



Register


Go to the top of the page
  Insert nick Quick quote
+Quote Post
post Jun 9 2019, 13:29:45
Post #2

Правь статус, ####!111
**************
Group: Металариец
Posts: 21,947
Releases: 15142
From: Г.Харьков
On Forums: 8 years 3 weeks
Thanks: 274843 time(s)
Unknown


Cloud Mail 320
Register


Thanks:
Go to the top of the page
  Insert nick Quick quote
+Quote Post
post Feb 5 2020, 11:13:20
Post #3

Два Литра
**
Group: Завсегдатай
Posts: 134
Releases: 2
From: г. Нальчик
On Forums: 7 years 5 months
Thanks: 360 time(s)
Russian Federation


Idolatry - In Nomine Mortis (2019), FLAC (tracks), Lossless 303 MB
Register
Go to the top of the page
  Insert nick Quick quote
+Quote Post

Reply to this topicStart new topic
1 User(s) are reading this topic (1 Guests and 0 Anonymous Users)
0 Members:

 



- Lo-Fi Version Support form
Copyrights and abuse reports form
Time is now: 4th June 2020 - 18:16:19