Welcome Guest ( Log In | Register )

> И неформату есть предел.

Рэп/хип-хоп/шансон/поп удаляются. Для них есть свои порталы.

 
Reply to this topicStart new topic
> No Point In Living - Last Sleep (2019), Dark Ambient
post Jun 9 2019, 17:45:28
Post #1

Мегаманьяк
***********
Group: Металариец
Posts: 1,789
Releases: 1554
From: Одесса
On Forums: 11 years 2 weeks
Thanks: 12928 time(s)
Ukraine


(IMG:http://metalarea.org/images/audiocovers/2019_Jun/acov_tid322856_thumb.jpg)

*Artist: No Point In Living
*Album: Last Sleep
*Year: 2019
*Genre: Dark Ambient
*Country: Japan (IMG:http://metalarea.org/forum/style_images/flags/Japan.png)
*Format: mp3@CBR320kbps
*Size: 95MB

Tracklist:
1. Sad Story 04:20
2. Light in the Sea 06:40
3. Don't Forget Me 05:38
4. Nightmare 07:02
5. Betrayed 09:38
6. Colorless Sky 06:38
******************************
Total playing time: 39:56



Extended info
Line - up:

Yu - Vocals, Guitars, Bass, Drum programming (A Portrait of Flesh and Blood, Retreat Neurosis)


Technical info
(IMG:http://metalarea.org/images/spectrogram/2019_Jun/d674ac39827d3867620930e7cda20ba8.png)
Input File: 03. Don't forget me.mp3
Channels : 2
Sample Rate : 44100
Precision : 16-bit
Duration : 00:05:38.10 = 14910122 samples = 25357.4 CDDA sectors
File Size : 13.6M
Bit Rate : 322k
Sample Encoding: MPEG audio (layer I, II or III)
Comments :
Title=Don't forget me
Artist=No Point in Living
Album=Last Sleep
Tracknumber=3
Year=2019
Genre=Depressive Black Metal



Register


Go to the top of the page
  Insert nick Quick quote
+Quote Post

Reply to this topicStart new topic
1 User(s) are reading this topic (1 Guests and 0 Anonymous Users)
0 Members:

 



- Lo-Fi Version Support form
Copyrights and abuse reports form
Time is now: 18th June 2019 - 17:40:48