Welcome Guest ( Log In | Register )

> Releases Upload / Добавление релизов

Добавить релиз тут / Click here to add release
Рекомендованные обменники / Recommended file shares

> Iron Spawn - Bloodstorm (2019), Power Metal
post Jun 10 2019, 03:14:00
Post #1

Правь статус, ####!111
**************
Group: Металариец
Posts: 17,750
Releases: 12037
From: Г.Харьков
On Forums: 7 years 2 months
Thanks: 202085 time(s)
Unknown


(IMG:https://metalarea.org/images/audiocovers/2019_Jun/acov_tid322865_thumb.jpg)

*Artist: Iron Spawn
*Album: Bloodstorm
*Year: 2019
*Genre: Power Metal
*Country: International (IMG:https://metalarea.org/forum/style_images/flags/International.png)
*Format: mp3@CBR320kbps
*Size: 105MB

Tracklist:
01. Intro 00:53
02. In Shadows 04:56
03. Alone in the Dark 03:14
04. Burning Angel 04:48
05. The Chosen One 05:58
06. The Hour of Revenge 05:06
07. Desperate Cry 05:32
08. An Orchid in the Snow 04:44
09. Bloodstorm 02:46
10. Alone in the Dark (Rare Version)Dani Maestro 03:13
11. Out in the Fields 03:57
******************************
Total playing time: 45:07



Extended info
Japan / Spain
Dani Ríos: Guitars, bass, keyboards, programming drums and keyboards.
Yama-B: Vocals.
Diego Zapatero: Keyboards.


Technical info
(IMG:https://metalarea.org/images/spectrogram/2019_Jun/bdd927c80810714fb153d282716ebaef.png)
Input File: 04 - Burning Angel.mp3
Channels : 2
Sample Rate : 44100
Precision : 16-bit
Duration : 00:04:48.25 = 12711869 samples = 21618.8 CDDA sectors
File Size : 11.7M
Bit Rate : 326k
Sample Encoding: MPEG audio (layer I, II or III)
Comments :
Title=Burning Angel
Artist=Iron Spawn
Album=Bloodstorm
Tracknumber=4
Year=2019
Discnumber=1



Register


Go to the top of the page
  Insert nick Quick quote
+Quote Post
 
Start new topic
Replies (1 - 3)
post Jun 10 2019, 21:30:34
Post #2

Правь статус, ####!111
**************
Group: Металариец
Posts: 17,750
Releases: 12037
From: Г.Харьков
On Forums: 7 years 2 months
Thanks: 202085 time(s)
Unknown


Cloud Mail 320
Register
Go to the top of the page
  Insert nick Quick quote
+Quote Post
post Jun 11 2019, 10:16:38
Post #3

hearer & reader
**************
Group: Металариец
Posts: 7,895
Releases: 103
From: Moscow
On Forums: 11 years 10 months
Thanks: 7404 time(s)
Russian Federation


Международный отстой. Рядом могли бы не хуже найти.
Go to the top of the page
  Insert nick Quick quote
+Quote Post
post Jun 11 2019, 19:37:12
Post #4

Тридцать лет на борту "Тяжёлого" крейсера
**************
Group: Металариец
Posts: 2,074
Releases: 0
From: Питер
On Forums: 12 years 1 month
Thanks: 516 time(s)
Russian Federation


(IMG:style_emoticons/default/gop_spb.gif)
в смысле, шляпа...
Go to the top of the page
  Insert nick Quick quote
+Quote Post

Reply to this topicStart new topic
1 User(s) are reading this topic (1 Guests and 0 Anonymous Users)
0 Members:

 



- Lo-Fi Version Support form
Copyrights and abuse reports form
Time is now: 17th July 2019 - 00:02:42