Welcome Guest ( Log In | Register )

> Releases Upload / Добавление релизов

Добавить релиз тут / Click here to add release
Рекомендованные обменники / Recommended file shares

> Ocriah - Shattered Kingdom (2019), Melodic Death Metal
post Jun 10 2019, 09:46:09
Post #1

MDM-Thrash Metal
**************
Group: Металариец
Posts: 8,219
Releases: 465
From: Одесса
On Forums: 11 years 10 months
Thanks: 15360 time(s)
Ukraine


(IMG:http://metalarea.org/images/audiocovers/2019_Jun/acov_tid322866_thumb.jpg)

*Artist: Ocriah
*Album: Shattered Kingdom
*Year: 2019
*Genre: Melodic Death Metal
*Country: United Kingdom (IMG:http://metalarea.org/forum/style_images/flags/United%20Kingdom.png)
*Format: mp3@CBR320kbps
*Size: 78MB

Tracklist:
01. Torment of Suffering
02. Forgotten Son
03. The Aftermath
04. A Different Perspective
05. Into Nowhere
06. A Living Nightmare
07. Warzone
08. The End of Time
******************************
Total playing time: 32:46

(IMG:http://metalarea.org/images/youtube.png)


Technical info
(IMG:http://metalarea.org/images/spectrogram/2019_Jun/f8871b46804d97fd05913fb2f9f3960b.png)
Input File: 1 - Torment of Suffering.mp3
Channels : 2
Sample Rate : 44100
Precision : 16-bit
Duration : 00:04:13.72 = 11188832 samples = 19028.6 CDDA sectors
File Size : 10.2M
Bit Rate : 321k
Sample Encoding: MPEG audio (layer I, II or III)
Comments :
Title=Torment of Suffering
Artist=Ocriah
Album=Shattered Kingdom
Tracknumber=1
Year=2019
Genre=Metal
Discnumber=1



Register


Go to the top of the page
  Insert nick Quick quote
+Quote Post
 
Start new topic
Replies (1 - 3)
post Jun 10 2019, 21:29:55
Post #2

MDM-Thrash Metal
**************
Group: Металариец
Posts: 8,219
Releases: 465
From: Одесса
On Forums: 11 years 10 months
Thanks: 15360 time(s)
Ukraine


Register


Thanks:
(1) Ostinato,
Go to the top of the page
  Insert nick Quick quote
+Quote Post
post Jun 11 2019, 19:36:10
Post #3

Тридцать лет на борту "Тяжёлого" крейсера
**************
Group: Металариец
Posts: 2,066
Releases: 0
From: Питер
On Forums: 12 years 2 weeks
Thanks: 515 time(s)
Russian Federation


ну, вот, вроде, и неплохо, но...у гитар какой-то софтовый призвук и аранжировки довольно топорно скроены местами
Go to the top of the page
  Insert nick Quick quote
+Quote Post
post Jun 12 2019, 07:29:55
Post #4

Ъ
**************
Group: Металариец
Posts: 9,578
Releases: 9
On Forums: 10 years 5 months
Thanks: 1861 time(s)
Sweden


Послушал пару треков с ютуюа, ничем не примечательный третьесорт.
Go to the top of the page
  Insert nick Quick quote
+Quote Post

Reply to this topicStart new topic
2 User(s) are reading this topic (2 Guests and 0 Anonymous Users)
0 Members:

 



- Lo-Fi Version Support form
Copyrights and abuse reports form
Time is now: 27th June 2019 - 07:16:27