Welcome Guest ( Log In | Register )

> Mass Hypnosia - Vicious (2019), Old School Thrash Metal
post Jun 10 2019, 16:19:59
Post #1

Правь статус, ####!111
**************
Group: Металариец
Posts: 25,773
Releases: 18452
From: Г.Харьков
On Forums: 8 years 11 months
Thanks: 364200 time(s)
Unknown


(IMG:https://metalarea.org/images/audiocovers/2019_Jun/acov_tid322875_thumb.jpg)

*Artist: Mass Hypnosia
*Album: Vicious
*Year: 2019
*Genre: Old School Thrash Metal
*Country: Philippines (IMG:https://metalarea.org/forum/style_images/flags/Philippines.png)
*Format: mp3@CBR320kbps
*Size: 75MB

Tracklist:
1. Nefarious 04:40
2. Vicious 02:47
3. The Weak Shall Die 04:06
4. Blasphemous Rage 04:30
5. Choking Point 05:06
6. Proceed the Torture 05:08
7. Set the Blaze 03:48
8. Crucial 03:40
******************************
Total playing time: 33:45




Extended info
CD-Rip
Emman Tadena Bass
Karl Rosales Vocals, Guitars
James Esguerra Drums (2015-present)



Technical info
(IMG:https://metalarea.org/images/spectrogram/2019_Jun/692286ee872ff2f2a6ab4657bd003e43.png)
Input File: 05 Choking Point.mp3
Channels : 2
Sample Rate : 44100
Precision : 16-bit
Duration : 00:05:05.57 = 13475813 samples = 22918 CDDA sectors
File Size : 12.2M
Bit Rate : 320k
Sample Encoding: MPEG audio (layer I, II or III)
Comments :
Title=Choking Point
Artist=Mass Hypnosia
Album=Vicious
Tracknumber=5
Year=2019
Genre=Thrash Metal



Register


Go to the top of the page
  Insert nick Quick quote
+Quote Post
 
Start new topic
Replies (1 - 3)
post Jun 10 2019, 21:26:50
Post #2

Правь статус, ####!111
**************
Group: Металариец
Posts: 25,773
Releases: 18452
From: Г.Харьков
On Forums: 8 years 11 months
Thanks: 364200 time(s)
Unknown


Cloud Mail 320
Register


Go to the top of the page
  Insert nick Quick quote
+Quote Post
post Jun 10 2019, 23:16:56
Post #3

Шесть Литров
******
Group: Металариец
Posts: 636
Releases: 0
On Forums: 11 years 9 months
Thanks: 158 time(s)
Ukraine


О филипинцы и ещё и оллскул, это точно что экзотика, репект им даже без прослушивания
Go to the top of the page
  Insert nick Quick quote
+Quote Post
post Jun 11 2019, 09:27:52
Post #4

Dr.
**************
Group: Металариец
Posts: 5,331
Releases: 0
From: Primorye.ru
On Forums: 10 years 3 weeks
Thanks: 1107 time(s)
Russian Federation


ЦИТАТА(Витон @ Jun 11 2019, 08:16:56) *
О филипинцы и ещё и оллскул, это точно что экзотика, репект им даже без прослушивания

also an interesting album Mass Hypnosia-Toxiferous Cyanide(2016)


Thanks:
Go to the top of the page
  Insert nick Quick quote
+Quote Post

Reply to this topicStart new topic
2 User(s) are reading this topic (2 Guests and 0 Anonymous Users)
0 Members:

 



- Lo-Fi Version Support form
Copyrights and abuse reports form
Time is now: 17th April 2021 - 23:39:28