Welcome Guest ( Log In | Register )

> Releases Upload / Добавление релизов

Добавить релиз тут / Click here to add release
Рекомендованные обменники / Recommended file shares

> Vietah & Door Into Emptiness - Kali B My Mahli Bačyć Usie Zorki, Načnoje Nieba Było B Śviatłom [collaboration] (2014), Atmospheric Black Metal | Black Metal (D)(D7)
post Jun 11 2019, 06:13:13
Post #1

Маньяк
**********
Group: Металариец
Posts: 1,149
Releases: 79
On Forums: 5 years 8 months
Thanks: 2087 time(s)
Unknown


(IMG:http://metalarea.org/images/audiocovers/2019_Jun/acov_tid322882_thumb.jpg)

*Artist: Vietah & Door Into Emptiness
*Album: Kali B My Mahli Bačyć Usie Zorki, Načnoje Nieba Było B Śviatłom [collaboration]
*Year: 2014
*Genre: Atmospheric Black Metal | Black Metal
*Country: Belarus (IMG:http://metalarea.org/forum/style_images/flags/Belarus.png) | Belarus (IMG:http://metalarea.org/forum/style_images/flags/Belarus.png)
*Format: mp3@CBR320kbps
*Size: 45MB

Tracklist:
01. Kali b my mahli bačyć usie zorki, načnoje nieba było b śviatłom 20:04
******************************
Total playing time: 20:04



Technical info
(IMG:http://metalarea.org/images/spectrogram/2019_Jun/926f943456142d5e4477036891646911.png)
Input File: 01 Kali b my mahli bačyć usie zorki, načnoje nieba było b śviatłom.mp3
Channels : 2
Sample Rate : 44100
Precision : 16-bit
Duration : 00:20:04.09 = 53100281 samples = 90306.6 CDDA sectors
File Size : 48.1M
Bit Rate : 320k
Sample Encoding: MPEG audio (layer I, II or III)



Register


Go to the top of the page
  Insert nick Quick quote
+Quote Post
 
Start new topic
Replies (1 - 3)
post Jun 11 2019, 21:01:11
Post #2

Маньяк
**********
Group: Металариец
Posts: 1,086
Releases: 0
On Forums: 8 years 1 month
Thanks: 471 time(s)
Unknown


Go to the top of the page
  Insert nick Quick quote
+Quote Post
post Jun 12 2019, 10:33:45
Post #3

Маньяк
**********
Group: Металариец
Posts: 1,215
Releases: 0
From: Russian Federation - St.Petersburg
On Forums: 10 years 3 months
Thanks: 278 time(s)
Russian Federation


Atmospheric Black Metal | Black Metal (IMG:style_emoticons/default/hmm.gif)
Go to the top of the page
  Insert nick Quick quote
+Quote Post
post Jun 14 2019, 12:48:42
Post #4

Group: Подсевший
Posts: 37
Releases: 0
On Forums: 3 weeks 2 days
Thanks: 15 time(s)
Unknown


Надо сказать от этих исполнителей я ожидал услышать совсем ни то что услышал здесь. За музыку здесь очень красноречиво все скажет аскетичное оформление. Минорные брынчания на гитаре и в селом все. Коллаборационный трек полностью инструментален, вокал отсутствует. Данный релиз ценности особо не представляет. Пичалька
Go to the top of the page
  Insert nick Quick quote
+Quote Post

Reply to this topicStart new topic
1 User(s) are reading this topic (1 Guests and 0 Anonymous Users)
0 Members:

 



- Lo-Fi Version Support form
Copyrights and abuse reports form
Time is now: 27th June 2019 - 07:27:20