Welcome Guest ( Log In | Register )

> Releases Upload / Добавление релизов

Добавить релиз тут / Click here to add release
Рекомендованные обменники / Recommended file shares

 
Reply to this topicStart new topic
> Sigil - Mutagen (2013), Black Metal/Hardcore (D5)
post Jun 11 2019, 12:48:12
Post #1

Мегаманьяк
***********
Group: Металариец
Posts: 1,705
Releases: 144
From: Omsk, Siberia
On Forums: 10 years 3 months
Thanks: 3018 time(s)
Russian Federation


(IMG:http://metalarea.org/images/audiocovers/2019_Jun/acov_tid322885_thumb.jpg)

*Artist: Sigil
*Album: Mutagen
*Year: 2013
*Genre: Black Metal/Hardcore
*Country: Canada (IMG:http://metalarea.org/forum/style_images/flags/Canada.png)
*Format: mp3@CBR320kbps
*Size: 47MB

Tracklist:
1. Antipodes 02:53
2. Slave Driver 01:49
3. Oppressor 01:48
4. Cartilage Ropes 02:07
5. Sacrosanct 03:00
6. Abyssal Defiance 03:50
7. Bending The Fog 03:17
8. Cathartic Avulsions 01:36
******************************
Total playing time: 20:23




(IMG:http://metalarea.org/images/youtube.png)

Extended info
Clennon Aranha - vocals (Sub-Atomic Chaos)
Peter Tyukasz - guitar, bass, recording engineering (Alder [Can], ex-Moradin, ex-Ominosity)
David Horrocks - drums, mixing, mastering (Alder [Can], Numenorean, ex-Hrom [Can], ex-Moradin, ex-Ominosity, ex-Sub-Atomic Chaos, Dark Forest [Can] (live), ex-Black Pestilence (live))


Technical info
(IMG:http://metalarea.org/images/spectrogram/2019_Jun/37bc696bcf5841a8c7f8aea30b2ac085.png)
Input File: 02 Slave Driver.mp3
Channels : 2
Sample Rate : 44100
Precision : 16-bit
Duration : 00:01:49.80 = 4842092 samples = 8234.85 CDDA sectors
File Size : 4.45M
Bit Rate : 325k
Sample Encoding: MPEG audio (layer I, II or III)
Comments :
Title=Slave Driver
Artist=Sigil
Album=Mutagen
Tracknumber=2
Year=2013
Genre=Black Metal/Hardcore



Register


Go to the top of the page
  Insert nick Quick quote
+Quote Post

Reply to this topicStart new topic
1 User(s) are reading this topic (1 Guests and 0 Anonymous Users)
0 Members:

 



- Lo-Fi Version Support form
Copyrights and abuse reports form
Time is now: 27th June 2019 - 07:01:01