Welcome Guest ( Log In | Register )

> Dark Doom - The Journey (2019), Melodic Black/Death Metal (D4)
post Jun 11 2019, 12:54:34
Post #1

Serial Uploader
Group Icon
Group: V.I.P
Posts: 36,075
Releases: 34276
From: Lithuania
On Forums: 11 years 3 months
Thanks: 397484 time(s)
Lithuania


(IMG:https://metalarea.org/images/audiocovers/2019_Jun/acov_tid322886_thumb.jpg)

*Artist: Dark Doom
*Album: The Journey
*Year: 2019
*Genre: Melodic Black/Death Metal
*Country: United Kingdom (IMG:https://metalarea.org/forum/style_images/flags/United%20Kingdom.png)
*Format: mp3@CBR320kbps
*Size: 80MB

Tracklist:
01. Spectre 09:48
02. Sigil 05:44
03. Portal 05:31
04. Ancient 05:38
05. Wilderness 08:04
******************************
Total playing time: 34:45




Technical info
(IMG:https://metalarea.org/images/spectrogram/2019_Jun/1aafe409de8920b5aafb09e460553284.png)
Input File: 2 - Sigil.mp3
Channels : 2
Sample Rate : 44100
Precision : 16-bit
Duration : 00:05:44.55 = 15194567 samples = 25841.1 CDDA sectors
File Size : 13.9M
Bit Rate : 322k
Sample Encoding: MPEG audio (layer I, II or III)
Comments :
Title=Sigil
Artist=Dark Doom
Album=The Journey
Tracknumber=2
Year=2019
Genre=Metal
Discnumber=1



Register


Go to the top of the page
  Insert nick Quick quote
+Quote Post
 
Start new topic
Replies (1 - 3)
post Jun 11 2019, 20:45:11
Post #2

MDM-Thrash Metal
**************
Group: Металариец
Posts: 8,661
Releases: 594
From: Одесса
On Forums: 12 years 1 month
Thanks: 17243 time(s)
Ukraine


One Man Band - чувствуется нехватка музыкальных идей и мыслей.


Thanks:
Go to the top of the page
  Insert nick Quick quote
+Quote Post
post Jun 15 2019, 05:20:37
Post #3

Ъ
**************
Group: Металариец
Posts: 9,667
Releases: 9
On Forums: 10 years 8 months
Thanks: 1889 time(s)
Sweden


Третьесорт, на раз послушать можно, но вообще к концу уже совсем наскучивает.
Go to the top of the page
  Insert nick Quick quote
+Quote Post
post Jun 15 2019, 10:32:36
Post #4

Правь статус, ####!111
**************
Group: Металариец
Posts: 2,600
Releases: 8
From: Dnipro
On Forums: 11 years 2 months
Thanks: 793 time(s)
Ukraine


ЦИТАТА(Andrew @ Jun 11 2019, 22:45:11) *
One Man Band - чувствуется нехватка музыкальных идей и мыслей.

Их двое как минимум
Alex Wills - Guitars, Bass, Vocals, Synth
Jonny Salisbury - Drums
Go to the top of the page
  Insert nick Quick quote
+Quote Post

Reply to this topicStart new topic
1 User(s) are reading this topic (1 Guests and 0 Anonymous Users)
0 Members:

 



- Lo-Fi Version Support form
Copyrights and abuse reports form
Time is now: 15th September 2019 - 09:00:09