Welcome Guest ( Log In | Register )

> Releases Upload / Добавление релизов

Добавить релиз тут / Click here to add release
Рекомендованные обменники / Recommended file shares

> Release Hallucination - Imperfection Of Imaginary Number (2019), Symphonic/Progressive Metal
post Jun 11 2019, 13:06:56
Post #1

Serial Uploader
Group Icon
Group: V.I.P
Posts: 35,477
Releases: 33689
From: Lithuania
On Forums: 11 years 2 weeks
Thanks: 386901 time(s)
Lithuania


(IMG:https://metalarea.org/images/audiocovers/2019_Jun/acov_tid322887_thumb.jpg)

*Artist: Release Hallucination
*Album: Imperfection Of Imaginary Number
*Year: 2019
*Genre: Symphonic/Progressive Metal
*Country: Japan (IMG:https://metalarea.org/forum/style_images/flags/Japan.png)
*Format: mp3@CBR320kbps
*Size: 162MB

Tracklist:
01. Prologue 00:45
02. Deus ex Machina 09:08
03. I.F. 07:00
04. The Executioner's Eye 06:57
05. Stray Sheep 04:05
06. My Unforgettable Day 06:07
07. Cure(reprise) 07:32
08. Sepia -End of Summer- 06:49
09. A Passing Point 06:55
10. Memento Mori 08:21
11. Death with Dignity 07:08
******************************
Total playing time: 1:10:47


(IMG:https://metalarea.org/images/youtube.png)

Technical info
(IMG:https://metalarea.org/images/spectrogram/2019_Jun/c0831d5a02e2c692983cb3c21418e1ed.png)
Input File: 2 - Deus Ex Machina.mp3
Channels : 2
Sample Rate : 44100
Precision : 16-bit
Duration : 00:09:05.99 = 24078115 samples = 40949.2 CDDA sectors
File Size : 21.9M
Bit Rate : 321k
Sample Encoding: MPEG audio (layer I, II or III)
Comments :
Title=Deus Ex Machina
Artist=Release Hallucination
Album=Imperfection of Imaginary Number
Tracknumber=2
Year=2019
Genre=Alternative/Indie Rock/Metal
Discnumber=1



Register


Go to the top of the page
  Insert nick Quick quote
+Quote Post
 
Start new topic
Replies (1 - 1)
post Jun 11 2019, 20:37:24
Post #2

MDM-Thrash Metal
**************
Group: Металариец
Posts: 8,219
Releases: 465
From: Одесса
On Forums: 11 years 10 months
Thanks: 15360 time(s)
Ukraine


Register
Go to the top of the page
  Insert nick Quick quote
+Quote Post

Reply to this topicStart new topic
1 User(s) are reading this topic (1 Guests and 0 Anonymous Users)
0 Members:

 



- Lo-Fi Version Support form
Copyrights and abuse reports form
Time is now: 27th June 2019 - 07:06:01