Welcome Guest ( Log In | Register )

 
Reply to this topicStart new topic
> Obzerv - Acherontia Atropos (2019), Progressive/Groove Metal
post Jun 11 2019, 13:26:49
Post #1

Serial Uploader
Group Icon
Group: V.I.P
Posts: 36,075
Releases: 34276
From: Lithuania
On Forums: 11 years 3 months
Thanks: 397484 time(s)
Lithuania


(IMG:https://metalarea.org/images/audiocovers/2019_Jun/acov_tid322888_thumb.jpg)

*Artist: Obzerv
*Album: Acherontia Atropos
*Year: 2019
*Genre: Progressive/Groove Metal
*Country: Greece (IMG:https://metalarea.org/forum/style_images/flags/Greece.png)
*Format: mp3@CBR320kbps
*Size: 101MB

Tracklist:
01. That Defining Moment 04:06
02. Apex Predator 03:19
03. Mother Nature Is Α Serial Killer 06:32
04. Agitated 04:27
05. Overthrown 09:19
06. Thought And Voice 03:40
07. Desensitise 04:45
08. Stage: Chrysalis 02:26
09. Plot Twist 05:11
******************************
Total playing time: 43:45



(IMG:https://metalarea.org/images/youtube.png)

Technical info
(IMG:https://metalarea.org/images/spectrogram/2019_Jun/9c939250df5c374a8ea10833870d9aa8.png)
Input File: 02 - Apex Predator.mp3
Channels : 2
Sample Rate : 44100
Precision : 16-bit
Duration : 00:03:20.03 = 8821455 samples = 15002.5 CDDA sectors
File Size : 8.21M
Bit Rate : 328k
Sample Encoding: MPEG audio (layer I, II or III)
Comments :
Title=Apex Predator
Artist=Obzerv
Album=Acherontia Atropos
Tracknumber=2
Year=2019
Genre=Metal
Discnumber=1



Register


Go to the top of the page
  Insert nick Quick quote
+Quote Post

Reply to this topicStart new topic
1 User(s) are reading this topic (1 Guests and 0 Anonymous Users)
0 Members:

 



- Lo-Fi Version Support form
Copyrights and abuse reports form
Time is now: 15th September 2019 - 09:07:33