Welcome Guest ( Log In | Register )

> Symphony Of Pain - Virology (2019), Progressive Metal
post Jun 11 2019, 13:48:54
Post #1

Serial Uploader
Group Icon
Group: V.I.P
Posts: 36,075
Releases: 34276
From: Lithuania
On Forums: 11 years 3 months
Thanks: 397484 time(s)
Lithuania


(IMG:https://metalarea.org/images/audiocovers/2019_Jun/acov_tid322889_thumb.jpg)

*Artist: Symphony Of Pain
*Album: Virology
*Year: 2019
*Genre: Progressive Metal
*Country: United Kingdom (IMG:https://metalarea.org/forum/style_images/flags/United%20Kingdom.png)
*Format: mp3@CBR320kbps
*Size: 106MB

Tracklist:
01. My Laboratory 04:35
02. Darkling 05:13
03. Virus 04:23
04. Down 05:16
05. Green Eyes 03:31
06. Suspicion (feat. Jiaxin Lloyd Webber) 05:35
07. Ghost Moon 02:11
08. I Can't Believe 04:20
09. Futile 04:27
10. War Machine (feat. Latana Amari Phoung) 06:41
******************************
Total playing time: 46:12

(IMG:https://metalarea.org/images/youtube.png)

Technical info
(IMG:https://metalarea.org/images/spectrogram/2019_Jun/4af98e250d74a602816fdc88460dce92.png)
Input File: 02 - Darkling.mp3
Channels : 2
Sample Rate : 44100
Precision : 16-bit
Duration : 00:05:13.80 = 13838712 samples = 23535.2 CDDA sectors
File Size : 12.6M
Bit Rate : 320k
Sample Encoding: MPEG audio (layer I, II or III)
Comments :
Title=Darkling
Artist=Symphony Of Pain
Album=Virology
Tracknumber=2
Year=2019
Genre=Metal
Discnumber=1



Register


Go to the top of the page
  Insert nick Quick quote
+Quote Post
 
Start new topic
Replies (1 - 2)
post Jun 12 2019, 10:13:54
Post #2

hearer & reader
**************
Group: Металариец
Posts: 8,022
Releases: 104
From: Moscow
On Forums: 12 years 1 week
Thanks: 7511 time(s)
Russian Federation


https://music.yandex.ru/album/7073736
https://www.symphonyofpain.co.uk/music/
Рок, чуток прога, альтернативы.
Go to the top of the page
  Insert nick Quick quote
+Quote Post
post Jun 12 2019, 10:40:25
Post #3

21st Century Schizoid Man
**************
Group: Металариец
Posts: 5,977
Releases: 73
From: Moscow
On Forums: 11 years 4 months
Thanks: 4666 time(s)
Russian Federation


Чё-то скучновато. Сначала попался трэк, напоминающий Threshold, я даже воспрял, но ненадолго.
Go to the top of the page
  Insert nick Quick quote
+Quote Post

Reply to this topicStart new topic
1 User(s) are reading this topic (1 Guests and 0 Anonymous Users)
0 Members:

 



- Lo-Fi Version Support form
Copyrights and abuse reports form
Time is now: 15th September 2019 - 08:37:44