Welcome Guest ( Log In | Register )

> Releases Upload / Добавление релизов

Добавить релиз тут / Click here to add release
Рекомендованные обменники / Recommended file shares

> Æternal Requiem - Rise (2019), Power Metal
post Jun 11 2019, 13:57:12
Post #1

Serial Uploader
Group Icon
Group: V.I.P
Posts: 35,477
Releases: 33689
From: Lithuania
On Forums: 11 years 2 weeks
Thanks: 386906 time(s)
Lithuania


(IMG:https://metalarea.org/images/audiocovers/2019_Jun/acov_tid322890_thumb.png)

*Artist: Æternal Requiem
*Album: Rise
*Year: 2019
*Genre: Power Metal
*Country: United States (IMG:https://metalarea.org/forum/style_images/flags/United%20States.png)
*Format: mp3@CBR320kbps
*Size: 93MB

Tracklist:
01. Intro 01:06
02. Rise 04:42
03. Never to Return 03:23
04. On my Way 05:15
05. Day of Reckoning 03:48
06. Succubus 07:11
07. Dead to the World 07:14
08. So Far 08:46
******************************
Total playing time: 41:25



(IMG:https://metalarea.org/images/youtube.png)

Technical info
(IMG:https://metalarea.org/images/spectrogram/2019_Jun/76da20adf1924845a3399dc131ff598f.png)
Input File: 02. Rise.mp3
Channels : 2
Sample Rate : 44100
Precision : 16-bit
Duration : 00:04:42.76 = 12469584 samples = 21206.8 CDDA sectors
File Size : 11.6M
Bit Rate : 327k
Sample Encoding: MPEG audio (layer I, II or III)
Comments :
Title=Rise
Artist=Æternal Requiem
Album=Rise
Tracknumber=2
Year=2019
Genre=Metal
Discnumber=1



Register


Go to the top of the page
  Insert nick Quick quote
+Quote Post
 
Start new topic
Replies (1 - 2)
post Jun 11 2019, 20:56:30
Post #2

MDM-Thrash Metal
**************
Group: Металариец
Posts: 8,219
Releases: 465
From: Одесса
On Forums: 11 years 10 months
Thanks: 15361 time(s)
Ukraine




Облога красивая!


Thanks:
(1) Amadeus,
Go to the top of the page
  Insert nick Quick quote
+Quote Post
post Jun 12 2019, 12:51:48
Post #3

Три Литра
***
Group: Завсегдатай
Posts: 225
Releases: 0
From: Moscow
On Forums: 11 years 5 months
Thanks: 17 time(s)
Russian Federation


ЦИТАТА(Andrew @ Jun 11 2019, 22:56:30) *


Облога красивая!


Безумно. Даже при плохом материале можно будет повыше оценить из-за нее
Go to the top of the page
  Insert nick Quick quote
+Quote Post

Reply to this topicStart new topic
1 User(s) are reading this topic (1 Guests and 0 Anonymous Users)
0 Members:

 



- Lo-Fi Version Support form
Copyrights and abuse reports form
Time is now: 27th June 2019 - 07:34:41