Welcome Guest ( Log In | Register )

> Releases Upload / Добавление релизов

Добавить релиз тут / Click here to add release
Рекомендованные обменники / Recommended file shares

 
Reply to this topicStart new topic
> Arendel - Infernalia (2019), Melodic Power Metal
post Jun 11 2019, 14:14:39
Post #1

Serial Uploader
Group Icon
Group: V.I.P
Posts: 35,477
Releases: 33689
From: Lithuania
On Forums: 11 years 2 weeks
Thanks: 386901 time(s)
Lithuania


(IMG:https://metalarea.org/images/audiocovers/2019_Jun/acov_tid322891_thumb.jpg)

*Artist: Arendel
*Album: Infernalia
*Year: 2019
*Genre: Melodic Power Metal
*Country: Spain (IMG:https://metalarea.org/forum/style_images/flags/Spain.png)
*Format: mp3@CBR320kbps
*Size: 117MB

Tracklist:
01. Viaje Al Más Allá 01:03
02. El Pacto Del Ángel 05:25
03. Fiesta Post Mortem 04:22
04. La Última Carta 05:00
05. Ella 03:57
06. Al Otro Lado 03:43
07. Un Mar de Dudas 04:53
08. Hijos Del Mal 03:29
09. Tantas Noches 04:11
10. La Rosa Maldita 04:06
11. El Cementerio de los Deseos 10:53
******************************
Total playing time: 51:02


(IMG:https://metalarea.org/images/youtube.png)

Technical info
(IMG:https://metalarea.org/images/spectrogram/2019_Jun/0ab5102993be241ee5fb94f1ec329546.png)
Input File: 02 - El Pacto del Ángel.mp3
Channels : 2
Sample Rate : 44100
Precision : 16-bit
Duration : 00:05:25.25 = 14343305 samples = 24393.4 CDDA sectors
File Size : 13.0M
Bit Rate : 320k
Sample Encoding: MPEG audio (layer I, II or III)
Comments :
Title=El Pacto del Ángel
Artist=Arendel
Album=Infernalia
Tracknumber=2
Year=2019
Genre=Metal
Discnumber=1



Register


Go to the top of the page
  Insert nick Quick quote
+Quote Post

Reply to this topicStart new topic
1 User(s) are reading this topic (1 Guests and 0 Anonymous Users)
0 Members:

 



- Lo-Fi Version Support form
Copyrights and abuse reports form
Time is now: 27th June 2019 - 07:00:47