Welcome Guest ( Log In | Register )

> Releases Upload / Добавление релизов

Добавить релиз тут / Click here to add release
Рекомендованные обменники / Recommended file shares

 
Reply to this topicStart new topic
> Eleanor - Entre Miseria Y Sacrificio (2019), Heavy/Power Metal (D4)
post Jun 11 2019, 14:21:40
Post #1

Serial Uploader
Group Icon
Group: V.I.P
Posts: 35,477
Releases: 33689
From: Lithuania
On Forums: 11 years 2 weeks
Thanks: 386906 time(s)
Lithuania


(IMG:https://metalarea.org/images/audiocovers/2019_Jun/acov_tid322892_thumb.jpg)

*Artist: Eleanor
*Album: Entre Miseria Y Sacrificio
*Year: 2019
*Genre: Heavy/Power Metal
*Country: Argentina (IMG:https://metalarea.org/forum/style_images/flags/Argentina.png)
*Format: mp3@CBR320kbps
*Size: 107MB

Tracklist:
01. Quebranto 04:34
02. Sin motivo 05:28
03. Entre miseria y sacrificio 05:13
04. Nuevo continuar 04:34
05. En tu destierro 04:48
06. En mil recuerdos 07:09
07. Ya habrá tiempo 04:00
08. Ancestral 04:01
09. Agonía 03:38
10. Otro final 04:12
******************************
Total playing time: 47:37


(IMG:https://metalarea.org/images/youtube.png)

Technical info
(IMG:https://metalarea.org/images/spectrogram/2019_Jun/ef2f9f622d58359f4c6dfc2cb30bf1fd.png)
Input File: 02 - Sin Motivo.mp3
Channels : 2
Sample Rate : 44100
Precision : 16-bit
Duration : 00:05:27.18 = 14428550 samples = 24538.4 CDDA sectors
File Size : 13.1M
Bit Rate : 320k
Sample Encoding: MPEG audio (layer I, II or III)
Comments :
Title=Sin Motivo
Artist=Eleanor
Album=Entre Miseria y Sacrificio
Tracknumber=2
Year=2019
Genre=Heavy Metal



Register


Go to the top of the page
  Insert nick Quick quote
+Quote Post

Reply to this topicStart new topic
1 User(s) are reading this topic (1 Guests and 0 Anonymous Users)
0 Members:

 



- Lo-Fi Version Support form
Copyrights and abuse reports form
Time is now: 27th June 2019 - 07:44:30