Welcome Guest ( Log In | Register )

 
Reply to this topicStart new topic
> Aragon - Aragon (2019), Heavy Metal (D13)
post Jun 11 2019, 14:31:58
Post #1

Serial Uploader
Group Icon
Group: V.I.P
Posts: 36,075
Releases: 34276
From: Lithuania
On Forums: 11 years 3 months
Thanks: 397484 time(s)
Lithuania


(IMG:https://metalarea.org/images/audiocovers/2019_Jun/acov_tid322893_thumb.jpg)

*Artist: Aragon
*Album: Aragon
*Year: 2019
*Genre: Heavy Metal
*Country: Argentina (IMG:https://metalarea.org/forum/style_images/flags/Argentina.png)
*Format: mp3@CBR320kbps
*Size: 92MB

Tracklist:
01. Resplandor
02. Libres De Culto
03. Cerca De Mi
04. Seres Eternos
05. El Vuelo Del Águila
06. Brazo De Piedra
07. Ya No Es Igual
08. Obsesión
09. Sueño De Orfeo
******************************
Total playing time: 39:58



Technical info
(IMG:https://metalarea.org/images/spectrogram/2019_Jun/d0decc16c2cd5bb12b279a23b35928b5.png)
Input File: 02 - Libres de Culto.mp3
Channels : 2
Sample Rate : 44100
Precision : 16-bit
Duration : 00:04:24.79 = 11677415 samples = 19859.5 CDDA sectors
File Size : 11.0M
Bit Rate : 331k
Sample Encoding: MPEG audio (layer I, II or III)
Comments :
Title=Libres de Culto
Artist=Aragón
Album=Aragon
Tracknumber=2
Year=2019
Genre=Heavy Metal
Discnumber=1



Register


Go to the top of the page
  Insert nick Quick quote
+Quote Post

Reply to this topicStart new topic
1 User(s) are reading this topic (1 Guests and 0 Anonymous Users)
0 Members:

 



- Lo-Fi Version Support form
Copyrights and abuse reports form
Time is now: 15th September 2019 - 08:30:38