Welcome Guest ( Log In | Register )

> Forge - The Weight Of Us (2019), Heavy Metal
post Jun 11 2019, 14:40:18
Post #1

Serial Uploader
Group Icon
Group: V.I.P
Posts: 36,075
Releases: 34276
From: Lithuania
On Forums: 11 years 3 months
Thanks: 397484 time(s)
Lithuania


(IMG:https://metalarea.org/images/audiocovers/2019_Jun/acov_tid322894_thumb.jpg)

*Artist: Forge
*Album: The Weight Of Us
*Year: 2019
*Genre: Heavy Metal
*Country: Argentina (IMG:https://metalarea.org/forum/style_images/flags/Argentina.png)
*Format: mp3@CBR320kbps
*Size: 82MB

Tracklist:
01. Soupeur 04:05
02. Tar 05:16
03. Mammal 05:20
04. Trepan 04:37
05. Sabir 04:46
06. Tunguska 05:36
07. Caldeira 04:11
******************************
Total playing time: 33:51




Technical info
(IMG:https://metalarea.org/images/spectrogram/2019_Jun/0a915b6f36b16fc395b2b7c5b13902ff.png)
Input File: 04. Trepan.mp3
Channels : 2
Sample Rate : 44100
Precision : 16-bit
Duration : 00:04:37.78 = 12250010 samples = 20833.4 CDDA sectors
File Size : 11.7M
Bit Rate : 338k
Sample Encoding: MPEG audio (layer I, II or III)
Comments :
Title=Trepan
Artist=Forge
Album=The Weight of Us
Tracknumber=4/7
Year=2019



Register


Go to the top of the page
  Insert nick Quick quote
+Quote Post
 
Start new topic
Replies (1 - 4)
post Jun 11 2019, 20:48:38
Post #2

MDM-Thrash Metal
**************
Group: Металариец
Posts: 8,661
Releases: 594
From: Одесса
On Forums: 12 years 1 month
Thanks: 17243 time(s)
Ukraine


Во-первых: инструментал.
А во-вторых: скорее стонер, нежели хеви...


Thanks:
(1) AHBAnep,
Go to the top of the page
  Insert nick Quick quote
+Quote Post
post Jun 12 2019, 02:16:16
Post #3

Три Литра
***
Group: Завсегдатай
Posts: 238
Releases: 0
From: Россия
On Forums: 7 years 7 months
Thanks: 80 time(s)
Russian Federation


И в третьих,страна Франция (IMG:style_emoticons/default/1488.gif)
Go to the top of the page
  Insert nick Quick quote
+Quote Post
post Jun 12 2019, 22:08:26
Post #4

Два Литра
**
Group: Завсегдатай
Posts: 147
Releases: 4
On Forums: 7 years 6 months
Thanks: 185 time(s)
Ukraine


This one is good.

Go to the top of the page
  Insert nick Quick quote
+Quote Post
post Jun 12 2019, 22:13:15
Post #5

Семь Литров
*******
Group: Металариец
Posts: 753
Releases: 0
On Forums: 3 months 3 weeks
Thanks: 242 time(s)
Russian Federation


ЦИТАТА(Andrew @ Jun 12 2019, 00:48:38) *
скорее стонер

А стонер потому что среднетемповый инструментальный онанизм? Ох уж эти иксперты на мэдээме.
Если кто заинтересуется - имеем тут инструментальную аллюзию на первый Мастодон, но весьма себе бездарную.


Thanks:
(1) Ghostb,
Go to the top of the page
  Insert nick Quick quote
+Quote Post

Reply to this topicStart new topic
1 User(s) are reading this topic (1 Guests and 0 Anonymous Users)
0 Members:

 



- Lo-Fi Version Support form
Copyrights and abuse reports form
Time is now: 15th September 2019 - 09:05:33