Welcome Guest ( Log In | Register )

 
Reply to this topicStart new topic
> Gary Hendrickson - The Gift (2019), Progressive Metal
post Jun 11 2019, 14:49:38
Post #1

Serial Uploader
Group Icon
Group: V.I.P
Posts: 36,075
Releases: 34276
From: Lithuania
On Forums: 11 years 3 months
Thanks: 397484 time(s)
Lithuania


(IMG:https://metalarea.org/images/audiocovers/2019_Jun/acov_tid322895_thumb.jpg)

*Artist: Gary Hendrickson
*Album: The Gift
*Year: 2019
*Genre: Progressive Metal
*Country: United States (IMG:https://metalarea.org/forum/style_images/flags/United%20States.png)
*Format: mp3@CBR320kbps
*Size: 145MB

Tracklist:
01. Mental Loss 06:00
02. Hillary 04:30
03. Dissolved Girl 06:22
04. For Me 03:56
05. Judgement Day 07:17
06. A Place to Heal 04:01
07. Uninvited 05:18
08. A Gólya 05:09
09. The Gift 05:31
10. Opus Lifeforce 15:02
******************************
Total playing time: 1:03:06



Technical info
(IMG:https://metalarea.org/images/spectrogram/2019_Jun/c643fd50e19b70d0f14fe06f883f26dd.png)
Input File: 02. Hillary.mp3
Channels : 2
Sample Rate : 44100
Precision : 16-bit
Duration : 00:04:29.73 = 11895181 samples = 20229.9 CDDA sectors
File Size : 10.9M
Bit Rate : 324k
Sample Encoding: MPEG audio (layer I, II or III)
Comments :
Title=Hillary
Artist=Gary Hendrickson
Album=The Gift
Tracknumber=2/10
Year=2019
Genre=17
Discnumber=1/1



Register


Go to the top of the page
  Insert nick Quick quote
+Quote Post

Reply to this topicStart new topic
1 User(s) are reading this topic (1 Guests and 0 Anonymous Users)
0 Members:

 



- Lo-Fi Version Support form
Copyrights and abuse reports form
Time is now: 15th September 2019 - 08:36:01