Welcome Guest ( Log In | Register )

 
Reply to this topicStart new topic
> Alien Within - Blessed By The Fallen (2019), Stoner Metal
post Jun 11 2019, 14:56:35
Post #1

Serial Uploader
Group Icon
Group: V.I.P
Posts: 36,075
Releases: 34276
From: Lithuania
On Forums: 11 years 3 months
Thanks: 397484 time(s)
Lithuania


(IMG:https://metalarea.org/images/audiocovers/2019_Jun/acov_tid322896_thumb.jpg)

*Artist: Alien Within
*Album: Blessed By The Fallen
*Year: 2019
*Genre: Stoner Metal
*Country: Greece (IMG:https://metalarea.org/forum/style_images/flags/Greece.png)
*Format: mp3@CBR320kbps
*Size: 102MB

Tracklist:
01. Red River 04:29
02. Too High With The Devil 04:41
03. Chasing My Tail 04:35
04. Downtown Miners 07:20
05. The Host 04:53
06. Shaken Dismantled Abused 03:33
07. The Serpent Inside 04:03
08. Aftermath 06:17
09. Death (... By The Blues) 04:12
******************************
Total playing time: 44:03




Technical info
(IMG:https://metalarea.org/images/spectrogram/2019_Jun/c252b8dab71d77952e19f9bb0699c122.png)
Input File: Alien Within - Blessed By The Fallen - 02 Too High With The Devil.mp3
Channels : 2
Sample Rate : 44100
Precision : 16-bit
Duration : 00:04:41.93 = 12433069 samples = 21144.7 CDDA sectors
File Size : 11.3M
Bit Rate : 322k
Sample Encoding: MPEG audio (layer I, II or III)
Comments :
Title=Too High With The Devil
Artist=Alien Within
Album=Blessed By The Fallen
Tracknumber=2
Year=2019



Register


Go to the top of the page
  Insert nick Quick quote
+Quote Post

Reply to this topicStart new topic
1 User(s) are reading this topic (1 Guests and 0 Anonymous Users)
0 Members:

 



- Lo-Fi Version Support form
Copyrights and abuse reports form
Time is now: 15th September 2019 - 09:13:09