Welcome Guest ( Log In | Register )

> Releases Upload / Добавление релизов

Добавить релиз тут / Click here to add release
Рекомендованные обменники / Recommended file shares

 
Reply to this topicStart new topic
> Aubzagl - Eilífa Kuldinn [ep] (2019), Black Metal
post Jun 11 2019, 15:06:34
Post #1

Serial Uploader
Group Icon
Group: V.I.P
Posts: 35,477
Releases: 33689
From: Lithuania
On Forums: 11 years 2 weeks
Thanks: 386905 time(s)
Lithuania


(IMG:https://metalarea.org/images/audiocovers/2019_Jun/acov_tid322897_thumb.jpg)

*Artist: Aubzagl
*Album: Eilífa Kuldinn [ep]
*Year: 2019
*Genre: Black Metal
*Country: United Kingdom (IMG:https://metalarea.org/forum/style_images/flags/United%20Kingdom.png)
*Format: mp3@CBR320kbps
*Size: 67MB

Tracklist:
01. Núll (The Owl cover) 00:34
02. The Hermit 05:14
03. Varaha 04:03
04. The Oath of Blood 03:23
05. Voices of the Aether 03:50
06. Ógilt (The Owl cover) 01:01
07. The Adversary 03:10
08. The End of All Things 06:30
******************************
Total playing time: 27:45




Technical info
(IMG:https://metalarea.org/images/spectrogram/2019_Jun/3081ede67fc4c92f2f0fb818dd691463.png)
Input File: Aubzagl - Eil_Łfa Kuldinn - 02 The Hermit.mp3
Channels : 2
Sample Rate : 44100
Precision : 16-bit
Duration : 00:05:14.51 = 13869671 samples = 23587.9 CDDA sectors
File Size : 12.7M
Bit Rate : 322k
Sample Encoding: MPEG audio (layer I, II or III)
Comments :
Title=The Hermit
Artist=Aubzagl
Album=Eilífa Kuldinn
Tracknumber=2
Year=2019



Register


Go to the top of the page
  Insert nick Quick quote
+Quote Post

Reply to this topicStart new topic
1 User(s) are reading this topic (1 Guests and 0 Anonymous Users)
0 Members:

 



- Lo-Fi Version Support form
Copyrights and abuse reports form
Time is now: 27th June 2019 - 07:21:39