Welcome Guest ( Log In | Register )

 
Reply to this topicStart new topic
> Lauxnos - Crushed By Waves (2019), Post-Black Metal (D8)
post Jun 11 2019, 15:40:13
Post #1

Девять Литров
*********
Group: Металариец
Posts: 993
Releases: 831
From: Новороссийск
On Forums: 8 years 4 months
Thanks: 14649 time(s)
Russian Federation


(IMG:https://metalarea.org/images/audiocovers/2019_Jun/acov_tid322898_thumb.jpg)

*Artist: Lauxnos
*Album: Crushed By Waves
*Year: 2019
*Genre: Post-Black Metal
*Country: Russian Federation (IMG:https://metalarea.org/forum/style_images/flags/Russian%20Federation.png)
*Format: mp3@CBR320kbps
*Size: 104MB

Tracklist:
01. The Voice Of Dead Ocean 07:46
02. Crushed By Waves 06:00
03. In Total Darkness 03:05
04. Whose Dream You Don't Dare Disturb 04:22
05. Hidden Ancient World 05:09
06. Bordering The Dawn 04:44
07. Through The Gates 05:09
08. Lord Of The Wild Waters 04:14
09. Her Name Is Thousands Of Stars 05:13
******************************
Total playing time: 45:38



Preview 3

Extended info






Technical info
(IMG:https://metalarea.org/images/spectrogram/2019_Jun/2752117a719bfd1e061b4728fc90d3c9.png)
Input File: 01. The Voice Of Dead Ocean.mp3
Channels : 2
Sample Rate : 44100
Precision : 16-bit
Duration : 00:07:46.11 = 20555231 samples = 34957.9 CDDA sectors
File Size : 18.6M
Bit Rate : 320k
Sample Encoding: MPEG audio (layer I, II or III)
Comments :
Title=The Voice Of Dead Ocean
Artist=Lauxnos
Album=Crushed By Waves
Tracknumber=01
Year=2019
Genre=Black Metal



Register


Go to the top of the page
  Insert nick Quick quote
+Quote Post

Reply to this topicStart new topic
1 User(s) are reading this topic (1 Guests and 0 Anonymous Users)
0 Members:

 



- Lo-Fi Version Support form
Copyrights and abuse reports form
Time is now: 15th September 2019 - 08:29:30