Welcome Guest ( Log In | Register )

> Releases Upload / Добавление релизов

Добавить релиз тут / Click here to add release
Рекомендованные обменники / Recommended file shares

> Manipulation - Mind Control Ultra (2019), Death Metal
post Jun 11 2019, 15:45:36
Post #1

Правь статус, ####!111
**************
Group: Металариец
Posts: 17,502
Releases: 11866
From: Г.Харьков
On Forums: 7 years 1 month
Thanks: 198584 time(s)
Unknown


(IMG:https://metalarea.org/images/audiocovers/2019_Jun/acov_tid322899_thumb.jpg)

*Artist: Manipulation
*Album: Mind Control Ultra
*Year: 2019
*Genre: Death Metal
*Country: Poland (IMG:https://metalarea.org/forum/style_images/flags/Poland.png)
*Format: mp3@CBR320kbps
*Size: 110MB

Tracklist:
1. Instruments of Change
2. Worshipers of Mirage
3. Slaves of the System
4. From the Inside
5. MK-Ultra
6. Limits
7. Energy of the Universe
8. The Skull with Acid in Eye
9. Room 216
10. Trample the Weak
11. RFID
12. Tale Told by an Idiot
******************************
Total playing time: 46:26




Extended info
Rado.Slav Guitars
See also: Empatic, ex-Deathbringer
Bysiek Bass (2001-2007, 2010-present)
See also: ex-Sinful Souls
Kriss Drums (2001-2007, 2010-present)
See also: Deathbringer, Disloyal, Empatic, Saw, ex-Prafuria
Vulture Guitars (2001-2007, 2010-present)
Kret Vocals (2017-present)
See also: Cinis




Technical info
(IMG:https://metalarea.org/images/spectrogram/2019_Jun/70b398094a033121367840905778f3a5.png)
Input File: Manipulation - Mind Control Ultra - 03. Slaves of the System.mp3
Channels : 2
Sample Rate : 44100
Precision : 16-bit
Duration : 00:04:24.66 = 11671682 samples = 19849.8 CDDA sectors
File Size : 10.9M
Bit Rate : 331k
Sample Encoding: MPEG audio (layer I, II or III)
Comments :
Title=Slaves of the System
Artist=Manipulation
Album=Mind Control Ultra
Tracknumber=03
Year=2019
Genre=Metal



Register


Go to the top of the page
  Insert nick Quick quote
+Quote Post
 
Start new topic
Replies (1 - 1)
post Jun 11 2019, 19:03:42
Post #2

Правь статус, ####!111
**************
Group: Металариец
Posts: 17,502
Releases: 11866
From: Г.Харьков
On Forums: 7 years 1 month
Thanks: 198584 time(s)
Unknown


FLAC 346 mb
Register


Thanks:
(1) Olethros,
Go to the top of the page
  Insert nick Quick quote
+Quote Post

Reply to this topicStart new topic
1 User(s) are reading this topic (1 Guests and 0 Anonymous Users)
0 Members:

 



- Lo-Fi Version Support form
Copyrights and abuse reports form
Time is now: 27th June 2019 - 07:31:14