Welcome Guest ( Log In | Register )

> Setherial - Firestorms [ep] (2013), Black Metal (D)
post Jun 11 2019, 16:57:29
Post #1

неделимое
****
Group: Металариец
Posts: 375
Releases: 8
On Forums: 7 years 11 months
Thanks: 231 time(s)
Russian Federation


(IMG:http://metalarea.org/images/audiocovers/2019_Jun/acov_tid322900_thumb.jpg)

*Artist: Setherial
*Album: Firestorms [ep]
*Year: 2013
*Genre: Black Metal
*Country: Sweden (IMG:http://metalarea.org/forum/style_images/flags/Sweden.png)
*Format: mp3@CBR320kbps
*Size: 31MB

Tracklist:
01 - Firestorms Over Haar - Megiddo 06:32
02 - The Neural Cage Of Self - Infliction 07:03
******************************
Total playing time: 13:35

Extended info
FLAC Rip


Technical info
(IMG:http://metalarea.org/images/spectrogram/2019_Jun/f4dfdc0e09e156e77ec52af7727f8371.png)
Input File: 02 - The Neural Cage Of Self - Infliction.mp3
Channels : 2
Sample Rate : 44100
Precision : 16-bit
Duration : 00:07:03.94 = 18695798 samples = 31795.6 CDDA sectors
File Size : 17.0M
Bit Rate : 320k
Sample Encoding: MPEG audio (layer I, II or III)



Register


Go to the top of the page
  Insert nick Quick quote
+Quote Post
 
Start new topic
Replies (1 - 2)
post Jun 12 2019, 06:55:39
Post #2

I hate you all
**************
Group: Металариец
Posts: 2,060
Releases: 75
From: Ukraine
On Forums: 12 years 4 months
Thanks: 5161 time(s)
Ukraine


Перезалейте плз на мегу или медиаогонь !
Go to the top of the page
  Insert nick Quick quote
+Quote Post
post Jun 12 2019, 09:37:19
Post #3

the faceless one
Group Icon
Group: S-moderation team
Posts: 9,226
Releases: 1884
On Forums: 11 years 1 month
Thanks: 110936 time(s)
Russian Federation


Register


Go to the top of the page
  Insert nick Quick quote
+Quote Post

Reply to this topicStart new topic
1 User(s) are reading this topic (1 Guests and 0 Anonymous Users)
0 Members:

 



- Lo-Fi Version Support form
Copyrights and abuse reports form
Time is now: 15th September 2019 - 08:30:30