Welcome Guest ( Log In | Register )

> Dominical - Oratory • Purgatory (2019), Melodic Death Metal
post Jun 11 2019, 17:36:09
Post #1

Правь статус, ####!111
**************
Group: Металариец
Posts: 18,472
Releases: 12504
From: Г.Харьков
On Forums: 7 years 4 months
Thanks: 211778 time(s)
Unknown


(IMG:https://metalarea.org/images/audiocovers/2019_Jun/acov_tid322901_thumb.jpg)

*Artist: Dominical
*Album: Oratory • Purgatory
*Year: 2019
*Genre: Melodic Death Metal
*Country: Spain (IMG:https://metalarea.org/forum/style_images/flags/Spain.png)
*Format: mp3@CBR320kbps
*Size: 156MB

Tracklist:
1. Those of the night 03:45
2. Echo 05:51
3. The rail 03:04
4. Hounau 03:49
5. I fear them 04:28
6. Pulse 05:20
7. September 04:21
8. Load 04:13
9. Van der Waals 04:15
10. Undone 04:26
11. The thin line 04:14
12. Look alive 04:23
13. Desobedience 04:28
14. The tyranny of the light 08:03
15. Voices 03:57
******************************
Total playing time: 1:08:37




Extended info
семь треков - аккустический альбом Oratory,дальше мдм Purgatory
Santiago Jara: guitars, lead and backing vocals
Alejandro Collantes: lead and backing vocals


Technical info
(IMG:https://metalarea.org/images/spectrogram/2019_Jun/685eb562aed9eb56bd81a175912a0634.png)
Input File: 09 - Van Der Waals.mp3
Channels : 2
Sample Rate : 44100
Precision : 16-bit
Duration : 00:04:15.39 = 11262699 samples = 19154.2 CDDA sectors
File Size : 10.2M
Bit Rate : 320k
Sample Encoding: MPEG audio (layer I, II or III)
Comments :
Title=Van Der Waals
Artist=Dominical
Album=Oratory Purgatory
Tracknumber=9
Year=2019
Genre=Death Metal
Discnumber=1



Register


Go to the top of the page
  Insert nick Quick quote
+Quote Post
 
Start new topic
Replies (1 - 4)
post Jun 11 2019, 21:20:41
Post #2

MDM-Thrash Metal
**************
Group: Металариец
Posts: 8,661
Releases: 594
From: Одесса
On Forums: 12 years 1 month
Thanks: 17243 time(s)
Ukraine


ЦИТАТА(Samaritianin @ Jun 11 2019, 19:36:09) *
*Genre: Melodic Death Metal

(IMG:style_emoticons/default/1488.gif) Первые 7 треков песенки под акустическую гитарку.
Уже с 8 трека идет тяж.
Go to the top of the page
  Insert nick Quick quote
+Quote Post
post Jun 12 2019, 13:45:16
Post #3

Три Литра
***
Group: Завсегдатай
Posts: 291
Releases: 4
On Forums: 12 years 5 months
Thanks: 239 time(s)
Russian Federation


ЦИТАТА(Andrew @ Jun 11 2019, 23:20:41) *
(IMG:style_emoticons/default/1488.gif) Первые 7 треков песенки под акустическую гитарку.
Уже с 8 трека идет тяж.



Самаритянин так и написал
ЦИТАТА
семь треков - аккустический альбом Oratory,дальше мдм Purgatory


чем-то зацепили испанцы, пожалуй, ещё раз прогоню альбомчик. The tyranny of the light понравился, из тяжелого.


ЗЫ Во избежание заблуждений у ЦА я бы написал в жанре - Acoustic / Melodic Death Metal
Go to the top of the page
  Insert nick Quick quote
+Quote Post
post Jun 12 2019, 21:22:52
Post #4

MDMщик
**************
Group: Металариец
Posts: 6,050
Releases: 386
From: Asgaard
On Forums: 13 years 9 months
Thanks: 5938 time(s)
Saint Pierre and Miquelon


надо заценить, в мемориз
Go to the top of the page
  Insert nick Quick quote
+Quote Post
post Jun 15 2019, 10:35:16
Post #5

Правь статус, ####!111
**************
Group: Металариец
Posts: 2,600
Releases: 8
From: Dnipro
On Forums: 11 years 2 months
Thanks: 793 time(s)
Ukraine


Что близкое к ужасному.
Go to the top of the page
  Insert nick Quick quote
+Quote Post

Reply to this topicStart new topic
1 User(s) are reading this topic (1 Guests and 0 Anonymous Users)
0 Members:

 



- Lo-Fi Version Support form
Copyrights and abuse reports form
Time is now: 15th September 2019 - 09:05:20