Welcome Guest ( Log In | Register )

> Amestigon - Mysterious Realms [demo] (1995), Black Metal (D)
post Jun 11 2019, 17:42:22
Post #1

неделимое
****
Group: Металариец
Posts: 375
Releases: 8
On Forums: 7 years 11 months
Thanks: 231 time(s)
Russian Federation


(IMG:http://metalarea.org/images/audiocovers/2019_Jun/acov_tid322902_thumb.jpg)

*Artist: Amestigon
*Album: Mysterious Realms [demo]
*Year: 1995
*Genre: Black Metal
*Country: Austria (IMG:http://metalarea.org/forum/style_images/flags/Austria.png)
*Format: mp3@CBR128kbps (IMG:http://metalarea.org/images/bit_low.gif)
*Size: 27MB

Tracklist:
01 - Challerian's Fall 05:01
02 - Samhain 04:43
03 - For The Death Of The Sun 08:58
04 - The Dark Is On The Rise 06:19
05 - Beloved Bleak Winter Nights 04:29
******************************
Total playing time: 29:30

Technical info
(IMG:http://metalarea.org/images/spectrogram/2019_Jun/8f7ae212fb8ba3ca04732e6b902b2338.png)
Input File: 02 - Samhain.mp3
Channels : 2
Sample Rate : 44100
Precision : 16-bit
Duration : 00:04:43.70 = 12511082 samples = 21277.4 CDDA sectors
File Size : 4.54M
Bit Rate : 128k
Sample Encoding: MPEG audio (layer I, II or III)



Register


Go to the top of the page
  Insert nick Quick quote
+Quote Post
 
Start new topic
Replies (1 - 2)
post Jun 11 2019, 21:15:30
Post #2

Forever Underground
**************
Group: Металариец
Posts: 6,029
Releases: 0
On Forums: 4 years 5 months
Thanks: 6695 time(s)
Unknown



Thank you so much!! (IMG:style_emoticons/default/true_black.gif)


Thanks:
(1) Occultas,
Go to the top of the page
  Insert nick Quick quote
+Quote Post
post Aug 21 2019, 16:47:02
Post #3

Forever Underground
**************
Group: Металариец
Posts: 6,029
Releases: 0
On Forums: 4 years 5 months
Thanks: 6695 time(s)
Unknown


Cover scan (from Discogs): https://i.imgur.com/OUhAext.jpg


Thanks:
(1) Occultas,
Go to the top of the page
  Insert nick Quick quote
+Quote Post

Reply to this topicStart new topic
1 User(s) are reading this topic (1 Guests and 0 Anonymous Users)
0 Members:

 



- Lo-Fi Version Support form
Copyrights and abuse reports form
Time is now: 15th September 2019 - 08:35:51