Welcome Guest ( Log In | Register )

> Blackdwarf - Mankind Eternal Dilemma (2019), Black/Death Metal
post Jun 11 2019, 17:55:29
Post #1

Правь статус, ####!111
**************
Group: Металариец
Posts: 18,472
Releases: 12504
From: Г.Харьков
On Forums: 7 years 4 months
Thanks: 211778 time(s)
Unknown


(IMG:https://metalarea.org/images/audiocovers/2019_Jun/acov_tid322903_thumb.jpg)

*Artist: Blackdwarf
*Album: Mankind Eternal Dilemma
*Year: 2019
*Genre: Black/Death Metal
*Country: Chile (IMG:https://metalarea.org/forum/style_images/flags/Chile.png)
*Format: mp3@CBR320kbps
*Size: 62MB

Tracklist:
1. Into the Abysm 01:22
2. Diabulus Dealer 02:23
3. Dagger 03:06
4. Land of Fire 02:39
5. Put Them Down 03:28
6. The Black Order 03:07
7. The Core 03:41
8. M.E.D. 04:03
9. Naked Cactus 02:35
******************************
Total playing time: 26:24




Technical info
(IMG:https://metalarea.org/images/spectrogram/2019_Jun/5a0f5fb944de40b6fc5bff8013e447c0.png)
Input File: 05 Put them Down.mp3
Channels : 2
Sample Rate : 44100
Precision : 16-bit
Duration : 00:03:28.57 = 9198069 samples = 15643 CDDA sectors
File Size : 8.49M
Bit Rate : 325k
Sample Encoding: MPEG audio (layer I, II or III)
Comments :
Title=Put them Down
Artist=Blackdwarf
Album=Mankind Eternal Dilemma
Tracknumber=5
Year=2019



Register


Go to the top of the page
  Insert nick Quick quote
+Quote Post
 
Start new topic
Replies (1 - 2)
post Jun 12 2019, 00:50:39
Post #2

Group: Подсевший
Posts: 12
Releases: 0
On Forums: 8 months 3 weeks
Thanks: 3 time(s)
Russian Federation


К моему удивлению, музыка оказалась интересной, тяжёлой и разнообразной. Единственное, чего мне недостаёт в этом альбоме - мелодичности.
Блэка здесь не обнаружено. Больше похоже технодэт.


Thanks:
(1) Foneg,
Go to the top of the page
  Insert nick Quick quote
+Quote Post
post Jun 13 2019, 16:06:51
Post #3

Три Литра
***
Group: Завсегдатай
Posts: 273
Releases: 144
On Forums: 7 years 6 days
Thanks: 3411 time(s)
Unknown


ЦИТАТА(Sanctus @ Jun 12 2019, 00:50:39) *
Блэка здесь не обнаружено. Больше похоже технодэт.


Тоже изначально подумал на технодэт, но всё прояснилось со второго трека, когда это превратилось в Deathcore/Death Metal
Go to the top of the page
  Insert nick Quick quote
+Quote Post

Reply to this topicStart new topic
1 User(s) are reading this topic (1 Guests and 0 Anonymous Users)
0 Members:

 



- Lo-Fi Version Support form
Copyrights and abuse reports form
Time is now: 15th September 2019 - 09:12:55