Welcome Guest ( Log In | Register )

> Document 6 - Grind (R)Evolution (2019), Death Metal/Grindcore (D4)
post Jun 11 2019, 20:11:26
Post #1

Serial Uploader
Group Icon
Group: V.I.P
Posts: 35,861
Releases: 34042
From: Lithuania
On Forums: 11 years 2 months
Thanks: 393452 time(s)
Lithuania


(IMG:http://metalarea.org/images/audiocovers/2019_Jun/acov_tid322905_thumb.jpg)

*Artist: Document 6
*Album: Grind (R)Evolution
*Year: 2019
*Genre: Death Metal/Grindcore
*Country: Germany (IMG:http://metalarea.org/forum/style_images/flags/Germany.png)
*Format: mp3@CBR320kbps
*Size: 88MB

Tracklist:
01. Blod
02. Trump-Jong-Un
03. Monster
04. Erschiessen
05. Sexist
06. Volxmusick
07. Faust
08. Hardcore Holocaust
09. Ordinare Liebe
10. Zerstorung
11. Duivel
12. Chili
13. Heuchlerei
14. Hack
15. Tod
16. Kollision
17. Weihnacht
18. A for Arrogance
******************************
Total playing time: 33:46



Technical info
(IMG:http://metalarea.org/images/spectrogram/2019_Jun/5c17a7f467e8ece11bb71178e5612531.png)
Input File: 02. Trump-Jong-Un.mp3
Channels : 2
Sample Rate : 44100
Precision : 16-bit
Duration : 00:01:35.96 = 4231660 samples = 7196.7 CDDA sectors
File Size : 4.43M
Bit Rate : 370k
Sample Encoding: MPEG audio (layer I, II or III)
Comments :
Title=Trump-Jong-Un
Artist=Document 6
Album=Grind (R)evolution
Tracknumber=2/18
Year=2019



Register


Go to the top of the page
  Insert nick Quick quote
+Quote Post
 
Start new topic
Replies (1 - 4)
post Aug 2 2019, 20:15:04
Post #2

Шесть Литров
******
Group: Металариец
Posts: 637
Releases: 10
On Forums: 10 years 7 months
Thanks: 162 time(s)
Germany


please, re upload.
Go to the top of the page
  Insert nick Quick quote
+Quote Post
post Aug 3 2019, 01:26:57
Post #3

Сволочь обыкновенная
**************
Group: Металариец
Posts: 2,497
Releases: 137
From: Брест
On Forums: 11 years 3 months
Thanks: 3186 time(s)
Belarus


deathic, try this link^
Register

Ксати, очень неплохая команда. Немцы всегда хорошо делают грайнд.



Thanks:
(1) deathic,
Go to the top of the page
  Insert nick Quick quote
+Quote Post
post Aug 6 2019, 00:46:45
Post #4

Шесть Литров
******
Group: Металариец
Posts: 637
Releases: 10
On Forums: 10 years 7 months
Thanks: 162 time(s)
Germany


QUOTE(spazm @ Aug 3 2019, 02:26:57) *
deathic, try this link^
Ксати, очень неплохая команда. Немцы всегда хорошо делают грайнд.



thanks bro.
Go to the top of the page
  Insert nick Quick quote
+Quote Post
post Aug 6 2019, 19:12:09
Post #5

brutalcesar
**************
Group: Металариец
Posts: 17,759
Releases: 67
From: Рязань
On Forums: 10 years 7 months
Thanks: 9221 time(s)
Russian Federation


ЦИТАТА(deathic @ Aug 2 2019, 23:15:04) *
please, re upload.

На бэндкампе фри даунлоад, кстати
ПС/ грайнд недурён, да!
Go to the top of the page
  Insert nick Quick quote
+Quote Post

Reply to this topicStart new topic
1 User(s) are reading this topic (1 Guests and 0 Anonymous Users)
0 Members:

 



- Lo-Fi Version Support form
Copyrights and abuse reports form
Time is now: 22nd August 2019 - 18:34:00