Welcome Guest ( Log In | Register )

 
Reply to this topicStart new topic
> Unheavened - Heathen Daughters [demo] (2018), Melodic Thrash Metal
post Jun 11 2019, 21:01:53
Post #1

Правь статус, ####!111
**************
Group: Металариец
Posts: 18,472
Releases: 12504
From: Г.Харьков
On Forums: 7 years 4 months
Thanks: 211778 time(s)
Unknown


(IMG:https://metalarea.org/images/audiocovers/2019_Jun/acov_tid322906_thumb.jpg)

*Artist: Unheavened
*Album: Heathen Daughters [demo]
*Year: 2018
*Genre: Melodic Thrash Metal
*Country: United States (IMG:https://metalarea.org/forum/style_images/flags/United%20States.png)
*Format: mp3@CBR320kbps
*Size: 39MB

Tracklist:
1. Fiend 05:24
2. Heathen Daughters 03:29
3. Caulbearer 04:46
4. Suffer the Gun 03:05
******************************
Total playing time: 16:44




Extended info
Jacob Black Bass
Orion Willcutt Drums
Stone McAteer Guitars, Vocals
Ryan Bitrick Vocals (backing), Guitars


Technical info
(IMG:https://metalarea.org/images/spectrogram/2019_Jun/519ca3eaed708359483b8e9911094ec2.png)
Input File: 02 - Heathen Daughters.mp3
Channels : 2
Sample Rate : 44100
Precision : 16-bit
Duration : 00:03:29.51 = 9239523 samples = 15713.5 CDDA sectors
File Size : 8.53M
Bit Rate : 326k
Sample Encoding: MPEG audio (layer I, II or III)
Comments :
Title=Heathen Daughters
Artist=Unheavened
Album=Heathen Daughters
Tracknumber=2
Year=2018
Genre=Metal
Discnumber=1



Register


Go to the top of the page
  Insert nick Quick quote
+Quote Post

Reply to this topicStart new topic
1 User(s) are reading this topic (1 Guests and 0 Anonymous Users)
0 Members:

 



- Lo-Fi Version Support form
Copyrights and abuse reports form
Time is now: 15th September 2019 - 08:48:41