Welcome Guest ( Log In | Register )

 
Reply to this topicStart new topic
> Bruusk - Bruusk (2019), Death/Groove Metal
post Jun 12 2019, 13:24:55
Post #1

Serial Uploader
Group Icon
Group: V.I.P
Posts: 35,872
Releases: 34079
From: Lithuania
On Forums: 11 years 2 months
Thanks: 394033 time(s)
Lithuania


(IMG:https://metalarea.org/images/audiocovers/2019_Jun/acov_tid322918_thumb.jpg)

*Artist: Bruusk
*Album: Bruusk
*Year: 2019
*Genre: Death/Groove Metal
*Country: Netherlands (IMG:https://metalarea.org/forum/style_images/flags/Netherlands.png)
*Format: mp3@CBR320kbps
*Size: 130MB

Tracklist:
01. Help Me
02. I Feed
03. Carve My Mark
04. I Will Not Bow
05. The Suffering
06. Death by Fire
07. Killing for Satisfaction
08. Act of the Blind
09. Burn It Down
10. A Path Unknown
11. Screams of Despondency
12. Shattered Mind
13. Victim of Persecutory Delusions
14. Kill Torture Sin
******************************
Total playing time: 56:32



Technical info
(IMG:https://metalarea.org/images/spectrogram/2019_Jun/22724f715547644065bf57059833d4c4.png)
Input File: 02. I Feed.mp3
Channels : 2
Sample Rate : 44100
Precision : 16-bit
Duration : 00:02:32.33 = 6717797 samples = 11424.8 CDDA sectors
File Size : 6.12M
Bit Rate : 321k
Sample Encoding: MPEG audio (layer I, II or III)
Comments :
Title=I Feed
Artist=Bruusk
Album=Bruusk
Tracknumber=2/14
Year=2019
Genre=9
Discnumber=1/1



Register


Go to the top of the page
  Insert nick Quick quote
+Quote Post

Reply to this topicStart new topic
1 User(s) are reading this topic (1 Guests and 0 Anonymous Users)
0 Members:

 



- Lo-Fi Version Support form
Copyrights and abuse reports form
Time is now: 26th August 2019 - 04:08:37