Welcome Guest ( Log In | Register )

 
Reply to this topicStart new topic
> Spinal Stenosis - Gorethrash (2019), Experimental Goregrind
post Jun 12 2019, 14:01:51
Post #1

Serial Uploader
Group Icon
Group: V.I.P
Posts: 35,825
Releases: 34033
From: Lithuania
On Forums: 11 years 2 months
Thanks: 393300 time(s)
Lithuania


(IMG:https://metalarea.org/images/audiocovers/2019_Jun/acov_tid322920_thumb.jpg)

*Artist: Spinal Stenosis
*Album: Gorethrash
*Year: 2019
*Genre: Experimental Goregrind
*Country: United States (IMG:https://metalarea.org/forum/style_images/flags/United%20States.png)
*Format: mp3@CBR320kbps
*Size: 96MB

Tracklist:
01. Annhilate You 01:42
02. Zingers 01:25
03. Andre The Giant Rules 01:24
04. Thrashing And Smashing 02:48
05. Spinal Stenosis 01:13
06. Wilford 01:18
07. Normsbarstool Dead 01:14
08. Give Him A Biscotti 01:16
09. Jimmy Fallon And His Antics 01:33
10. Clean Up On Aisle 69 01:59
11. Who Will Challenge Metal In The 2020's? 01:54
12. Nothing 01:12
13. Getting A Beatdown At Fuddruckers 22:20
******************************
Total playing time: 41:18




Technical info
(IMG:https://metalarea.org/images/spectrogram/2019_Jun/d049a2ec8339755a695af5b11d0ecc82.png)
Input File: 02. Zingers.mp3
Channels : 2
Sample Rate : 44100
Precision : 16-bit
Duration : 00:01:25.97 = 3791409 samples = 6447.97 CDDA sectors
File Size : 3.53M
Bit Rate : 328k
Sample Encoding: MPEG audio (layer I, II or III)
Comments :
Title=Zingers
Artist=Spinal Stenosis
Album=Gorethrash
Tracknumber=2
Year=2019



Register


Thanks:
Go to the top of the page
  Insert nick Quick quote
+Quote Post

Reply to this topicStart new topic
1 User(s) are reading this topic (1 Guests and 0 Anonymous Users)
0 Members:

 



- Lo-Fi Version Support form
Copyrights and abuse reports form
Time is now: 20th August 2019 - 23:56:53