Welcome Guest ( Log In | Register )

 
Reply to this topicStart new topic
> Ocular Leech Infestation - Potent Whiff Of Vomit Forth Stench [ep] (2019), Goregrind (D7)
post Jun 12 2019, 14:23:51
Post #1

Serial Uploader
Group Icon
Group: V.I.P
Posts: 36,795
Releases: 34980
From: Lithuania
On Forums: 11 years 7 months
Thanks: 410743 time(s)
Lithuania


(IMG:https://metalarea.org/images/audiocovers/2019_Jun/acov_tid322923_thumb.jpg)

*Artist: Ocular Leech Infestation
*Album: Potent Whiff Of Vomit Forth Stench [ep]
*Year: 2019
*Genre: Goregrind
*Country: United States (IMG:https://metalarea.org/forum/style_images/flags/United%20States.png)
*Format: mp3@CBR320kbps
*Size: 25MB

Tracklist:
01. Mind Molester 00:57
02. Opioid-Induced Physiological Trauma 01:09
03. Notorious Holy Cunt Fuck 02:19
04. Delicious Tasty Incest 01:11
05. The Dung Beetle Paradox 01:21
06. Soft And Sensitive Tissue Paper, Except Rigged With Explosives 00:55
07. Quadriplegic Bomb Squad 00:18
08. Fuck Topeka, Kansas 01:14
09. ??? 00:05
10. Fire Engine Bratwurst Bukkake 00:43
******************************
Total playing time: 10:12




Technical info
(IMG:https://metalarea.org/images/spectrogram/2019_Jun/b165374d2f1103949977b6013395aba7.png)
Input File: 02. Opioid-Induced Physiological Trauma.mp3
Channels : 2
Sample Rate : 44100
Precision : 16-bit
Duration : 00:01:09.12 = 3048324 samples = 5184.22 CDDA sectors
File Size : 2.93M
Bit Rate : 339k
Sample Encoding: MPEG audio (layer I, II or III)
Comments :
Title=Opioid-Induced Physiological Trauma
Artist=Ocular Leech Infestation
Album=[2019] [EP] Potent Whiff of Vomit Forth Stench
Tracknumber=2
Year=2019



Register


Go to the top of the page
  Insert nick Quick quote
+Quote Post

Reply to this topicStart new topic
1 User(s) are reading this topic (1 Guests and 0 Anonymous Users)
0 Members:

 



- Lo-Fi Version Support form
Copyrights and abuse reports form
Time is now: 19th January 2020 - 06:19:16