Welcome Guest ( Log In | Register )

 
Reply to this topicStart new topic
> Atlas Entity - Beneath The Cosmic Silence (2019), Progressive Death Metal
post Jun 13 2019, 14:29:10
Post #1

Правь статус, ####!111
**************
Group: Металариец
Posts: 18,579
Releases: 12575
From: Г.Харьков
On Forums: 7 years 4 months
Thanks: 213156 time(s)
Unknown


(IMG:https://metalarea.org/images/audiocovers/2019_Jun/acov_tid322962_thumb.jpg)

*Artist: Atlas Entity
*Album: Beneath The Cosmic Silence
*Year: 2019
*Genre: Progressive Death Metal
*Country: United States (IMG:https://metalarea.org/forum/style_images/flags/United%20States.png)
*Format: mp3@CBR320kbps
*Size: 95MB

Tracklist:
1. Adorned in Red 03:38
2. In the Shadow of the Mountain pt. 1 06:09
3. In the Shadow of the Mountain pt. 2 05:19
4. Murmurs of Dissent 05:27
5. Visions of Gold 05:25
6. Windswept 03:28
7. Scorned by the Snow 04:52
8. Celestial Noise 07:21
******************************
Total playing time: 41:39




Extended info
Sam Paulicelli Drums
See also: 66Samus, Arakhne, Decrepit Birth, Eliminator, Forever's Edge, Reign of Vengeance, Rising Phoenix, ex-Abigail Williams, ex-Abysmal Gates, ex-Mutiny Within, ex-Suspyre, ex-Arsis (live), ex-Goatwhore (live), ex-Dark Empire
Alex Gallegos Guitars, Bass, Vocals


Technical info
(IMG:https://metalarea.org/images/spectrogram/2019_Jun/963c2c88aa75eafdc1dc4a4d9c8e40ba.png)
Input File: 4 - Murmurs of Dissent.mp3
Channels : 2
Sample Rate : 44100
Precision : 16-bit
Duration : 00:05:27.75 = 14453775 samples = 24581.2 CDDA sectors
File Size : 13.2M
Bit Rate : 322k
Sample Encoding: MPEG audio (layer I, II or III)
Comments :
Title=Murmurs of Dissent
Artist=Atlas Entity
Album=Beneath the Cosmic Silence
Tracknumber=4
Year=2019
Genre=Metal
Discnumber=1



Register


Go to the top of the page
  Insert nick Quick quote
+Quote Post

Reply to this topicStart new topic
1 User(s) are reading this topic (1 Guests and 0 Anonymous Users)
0 Members:

 



- Lo-Fi Version Support form
Copyrights and abuse reports form
Time is now: 21st September 2019 - 12:03:10