Welcome Guest ( Log In | Register )

> Releases Upload / Добавление релизов

Добавить релиз тут / Click here to add release
Рекомендованные обменники / Recommended file shares

 
Reply to this topicStart new topic
> Dan Sandford - Parhelion (2019), Instrumental/Progressive Metal
post Jun 13 2019, 14:39:40
Post #1

Serial Uploader
Group Icon
Group: V.I.P
Posts: 35,420
Releases: 33632
From: Lithuania
On Forums: 11 years 1 week
Thanks: 386081 time(s)
Lithuania


(IMG:https://metalarea.org/images/audiocovers/2019_Jun/acov_tid322963_thumb.jpg)

*Artist: Dan Sandford
*Album: Parhelion
*Year: 2019
*Genre: Instrumental/Progressive Metal
*Country: United Kingdom (IMG:https://metalarea.org/forum/style_images/flags/United%20Kingdom.png)
*Format: mp3@CBR320kbps
*Size: 92MB

Tracklist:
01. Kaleidosphere
02. Light Rope
03. The Poisoned Well
04. Architect
05. Pliade
06. Prey
07. Jejune
08. Falka Rebellion
******************************
Total playing time: 40:03



Technical info
(IMG:https://metalarea.org/images/spectrogram/2019_Jun/2893705628160676750c5540b5ca7a91.png)
Input File: 02. Light Rope.mp3
Channels : 2
Sample Rate : 44100
Precision : 16-bit
Duration : 00:05:50.56 = 15459652 samples = 26291.9 CDDA sectors
File Size : 14.1M
Bit Rate : 322k
Sample Encoding: MPEG audio (layer I, II or III)
Comments :
Title=Light Rope
Artist=Dan Sandford
Album=Parhelion
Tracknumber=2/8
Year=2019
Genre=9
Discnumber=1/1



Register


Go to the top of the page
  Insert nick Quick quote
+Quote Post

Reply to this topicStart new topic
1 User(s) are reading this topic (1 Guests and 0 Anonymous Users)
0 Members:

 



- Lo-Fi Version Support form
Copyrights and abuse reports form
Time is now: 18th June 2019 - 19:18:24