Welcome Guest ( Log In | Register )

> Irgalom - Meditate (Volume 1) (2019), Black/Death/Doom Metal (D4)
post Jun 13 2019, 14:47:45
Post #1

Serial Uploader
Group Icon
Group: V.I.P
Posts: 36,147
Releases: 34346
From: Lithuania
On Forums: 11 years 3 months
Thanks: 398460 time(s)
Lithuania


(IMG:https://metalarea.org/images/audiocovers/2019_Jun/acov_tid322964_thumb.jpg)

*Artist: Irgalom
*Album: Meditate (Volume 1)
*Year: 2019
*Genre: Black/Death/Doom Metal
*Country: Hungary (IMG:https://metalarea.org/forum/style_images/flags/Hungary.png)
*Format: mp3@CBR320kbps
*Size: 118MB

Tracklist:
01. Meditate
02. The Way of Your Precepts
03. In Great Riches
04. A Wineskin in the Smoke
05. Steadfast Ways
06. Preserve My Life
07. A Stranger on Earth
08. Ancient Laws
09. In Freedom
10. To All Perfection
11. Teach Me Your Decrees
12. Your Hands Made Me
13. Like a Breath (Bonus Track)
14. Endures Forever (Bonus Track)
15. Footprints of Thunder
******************************
Total playing time: 51:18




Technical info
(IMG:https://metalarea.org/images/spectrogram/2019_Jun/fb5f1fa4f60eaa6b6f31c1c425627305.png)
Input File: 02. The Way of Your Precepts.mp3
Channels : 2
Sample Rate : 44100
Precision : 16-bit
Duration : 00:02:47.46 = 7384854 samples = 12559.3 CDDA sectors
File Size : 6.77M
Bit Rate : 323k
Sample Encoding: MPEG audio (layer I, II or III)
Comments :
Title=The Way of Your Precepts
Artist=Irgalom
Album=Meditate, Vol. 1
Tracknumber=2/15
Year=2019
Genre=9
Discnumber=1/1



Register


Go to the top of the page
  Insert nick Quick quote
+Quote Post
 
Start new topic
Replies (1 - 1)
post Jun 13 2019, 18:45:10
Post #2

De Mysteriis Dom Sathanas
**************
Group: Металариец
Posts: 3,642
Releases: 63
From: Doom
On Forums: 11 years 2 months
Thanks: 3067 time(s)
Russian Federation


Lyrical themes:
Christianity
(IMG:style_emoticons/default/23.gif)
Unblack


Thanks:
(1) ahp,
Go to the top of the page
  Insert nick Quick quote
+Quote Post

Reply to this topicStart new topic
1 User(s) are reading this topic (1 Guests and 0 Anonymous Users)
0 Members:

 



- Lo-Fi Version Support form
Copyrights and abuse reports form
Time is now: 21st September 2019 - 12:10:07