Welcome Guest ( Log In | Register )

> Releases Upload / Добавление релизов

Добавить релиз тут / Click here to add release
Рекомендованные обменники / Recommended file shares

 
Reply to this topicStart new topic
> Executive Disorder - Forever War (2019), Thrash Metal/Hardcore
post Jun 13 2019, 14:51:14
Post #1

Правь статус, ####!111
**************
Group: Металариец
Posts: 17,392
Releases: 11800
From: Г.Харьков
On Forums: 7 years 1 month
Thanks: 197430 time(s)
Unknown


(IMG:https://metalarea.org/images/audiocovers/2019_Jun/acov_tid322965_thumb.jpg)

*Artist: Executive Disorder
*Album: Forever War
*Year: 2019
*Genre: Thrash Metal/Hardcore
*Country: United States (IMG:https://metalarea.org/forum/style_images/flags/United%20States.png)
*Format: mp3@CBR320kbps
*Size: 107MB

Tracklist:
01. Sherman's March to the Sea
02. Unconditional Surrender
03. Whiskey Rebellion
04. Redneckistan
05. I Need a Gun
06. Elephant in the Room
07. Amendment XIX
08. Onward! To Vinland
09. Oh, Carrie
10. Lockdown
11. Pig War
12. Slick Willie
13. 1000 Points of Fight
14. Forever War
******************************
Total playing time: 49:59




Extended info
Chris "Hand of Doom" Rose Bass (2016-present)
Hayden Dustin Drums (2016-present)
Seanbag "Skittletooth" Rose Guitars (lead) (2016-present)
Jim "Harvester" Kobak Vocals, Guitar (2016-present)


Technical info
(IMG:https://metalarea.org/images/spectrogram/2019_Jun/782fb54e55926add39ed4ec66961ef0c.png)
Input File: 03. Whiskey Rebellion.mp3
Channels : 2
Sample Rate : 44100
Precision : 16-bit
Duration : 00:04:37.52 = 12238500 samples = 20813.8 CDDA sectors
File Size : 11.2M
Bit Rate : 322k
Sample Encoding: MPEG audio (layer I, II or III)
Comments :
Title=Whiskey Rebellion
Artist=Executive Disorder
Album=Forever War
Tracknumber=3/14
Year=2019
Genre=9
Discnumber=1/1



Register


Go to the top of the page
  Insert nick Quick quote
+Quote Post

Reply to this topicStart new topic
1 User(s) are reading this topic (1 Guests and 0 Anonymous Users)
0 Members:

 



- Lo-Fi Version Support form
Copyrights and abuse reports form
Time is now: 18th June 2019 - 17:39:25