Welcome Guest ( Log In | Register )

 
Reply to this topicStart new topic
> Slow Order - Eternal Fire (2019), Stoner/Southern/Doom Metal
post Jun 13 2019, 14:53:41
Post #1

Serial Uploader
Group Icon
Group: V.I.P
Posts: 36,147
Releases: 34346
From: Lithuania
On Forums: 11 years 3 months
Thanks: 398460 time(s)
Lithuania


(IMG:https://metalarea.org/images/audiocovers/2019_Jun/acov_tid322966_thumb.jpg)

*Artist: Slow Order
*Album: Eternal Fire
*Year: 2019
*Genre: Stoner/Southern/Doom Metal
*Country: Italy (IMG:https://metalarea.org/forum/style_images/flags/Italy.png)
*Format: mp3@CBR320kbps
*Size: 78MB

Tracklist:
01. Eternal Fire
02. Obsessive Tale
03. Serpent’s Son
04. Eclipse
05. Kanavar
06. The Hunter
07. Starweed
08. Black Mass
******************************
Total playing time: 33:54

(IMG:https://metalarea.org/images/myspace.png)

(IMG:https://metalarea.org/images/youtube.png)

Technical info
(IMG:https://metalarea.org/images/spectrogram/2019_Jun/d2c418b4a5f624e5e94c19fed67dfcd8.png)
Input File: 2 - Obsessive Tale.mp3
Channels : 2
Sample Rate : 44100
Precision : 16-bit
Duration : 00:03:55.14 = 10369718 samples = 17635.6 CDDA sectors
File Size : 9.50M
Bit Rate : 323k
Sample Encoding: MPEG audio (layer I, II or III)
Comments :
Title=Obsessive Tale
Artist=Slow Order
Album=Eternal Fire
Tracknumber=2
Year=2019
Genre=Metal
Discnumber=1



Register


Go to the top of the page
  Insert nick Quick quote
+Quote Post

Reply to this topicStart new topic
1 User(s) are reading this topic (1 Guests and 0 Anonymous Users)
0 Members:

 



- Lo-Fi Version Support form
Copyrights and abuse reports form
Time is now: 21st September 2019 - 12:17:52