Welcome Guest ( Log In | Register )

> Releases Upload / Добавление релизов

Добавить релиз тут / Click here to add release
Рекомендованные обменники / Recommended file shares

 
Reply to this topicStart new topic
> The Inferno Doll - Dollmination (2015), Melodic Groove Metal/Metalcore
post Jun 13 2019, 15:06:05
Post #1

Добрый десептикон
******
Group: Металариец
Posts: 539
Releases: 403
On Forums: 11 years 4 months
Thanks: 4158 time(s)
Russian Federation


(IMG:http://metalarea.org/images/audiocovers/2019_Jun/acov_tid322967_thumb.jpg)

*Artist: The Inferno Doll
*Album: Dollmination
*Year: 2015
*Genre: Melodic Groove Metal/Metalcore
*Country: Chile (IMG:http://metalarea.org/forum/style_images/flags/Chile.png)
*Format: mp3@CBR320kbps
*Size: 99MB

Tracklist:
1. Crushing Me
2. Dollmination
3. Conciencia
4. The Awakening
5. Broken Inferno
6. Nemesis Within
7. Asylum
8. The Dream
9. Final Rise
10. Carmilla (Theatres des Vampires cover)
******************************
Total playing time: 43:33



Technical info
(IMG:http://metalarea.org/images/spectrogram/2019_Jun/54518ee80c4446fcdd4ffee2489b0d5e.png)
Input File: The Inferno Doll - Dollmination - 01 Crushing Me.mp3
Channels : 2
Sample Rate : 44100
Precision : 16-bit
Duration : 00:03:55.10 = 10367910 samples = 17632.5 CDDA sectors
File Size : 9.40M
Bit Rate : 320k
Sample Encoding: MPEG audio (layer I, II or III)
Comments :
Title=Crushing Me
Artist=The Inferno Doll
Album=Dollmination
Tracknumber=1
Year=2015



Register


Thanks:
Go to the top of the page
  Insert nick Quick quote
+Quote Post

Reply to this topicStart new topic
1 User(s) are reading this topic (1 Guests and 0 Anonymous Users)
0 Members:

 



- Lo-Fi Version Support form
Copyrights and abuse reports form
Time is now: 18th June 2019 - 05:39:30