Welcome Guest ( Log In | Register )

 
Reply to this topicStart new topic
> Solmyr - Creatio Ex Nihilo: Demo Collection [compilation] (2019), Atmospheric Black Metal
post Jun 13 2019, 15:07:41
Post #1

Serial Uploader
Group Icon
Group: V.I.P
Posts: 36,147
Releases: 34346
From: Lithuania
On Forums: 11 years 3 months
Thanks: 398460 time(s)
Lithuania


(IMG:https://metalarea.org/images/audiocovers/2019_Jun/acov_tid322968_thumb.jpg)

*Artist: Solmyr
*Album: Creatio Ex Nihilo: Demo Collection [compilation]
*Year: 2019
*Genre: Atmospheric Black Metal
*Country: Denmark (IMG:https://metalarea.org/forum/style_images/flags/Denmark.png)
*Format: mp3@CBR320kbps
*Size: 129MB

Tracklist:
01. Arrogance
02. White
03. Night Wanderer
04. The First Council of Nicaea
05. Demonic Tutor
06. Soul Siphon
07. Iceborn Northlands
08. Behold, the Cometh Passing
09. Pilgrims of the Pit
10. Blanket of Stars, Veil of Twilight
11. Creatio Ex Nihilo
******************************
Total playing time: 56:11



Technical info
(IMG:https://metalarea.org/images/spectrogram/2019_Jun/31ede3d3863bb5a6e526bb86bbe5e27e.png)
Input File: 10. Blanket of Stars, Veil of Twilight.mp3
Channels : 2
Sample Rate : 44100
Precision : 16-bit
Duration : 00:06:20.45 = 16777625 samples = 28533.4 CDDA sectors
File Size : 15.4M
Bit Rate : 324k
Sample Encoding: MPEG audio (layer I, II or III)
Comments :
Title=Blanket of Stars, Veil of Twilight
Artist=Solmyr
Album=Creatio Ex Nihilo: Demo Collection
Tracknumber=10/11
Genre=9
Discnumber=1/1



Register


Go to the top of the page
  Insert nick Quick quote
+Quote Post

Reply to this topicStart new topic
1 User(s) are reading this topic (1 Guests and 0 Anonymous Users)
0 Members:

 



- Lo-Fi Version Support form
Copyrights and abuse reports form
Time is now: 21st September 2019 - 12:25:05