Welcome Guest ( Log In | Register )

> Releases Upload / Добавление релизов

Добавить релиз тут / Click here to add release
Рекомендованные обменники / Recommended file shares

 
Reply to this topicStart new topic
> Infrared - Back To The Warehouse [ep] (2019), Thrash Metal (D5)
post Jun 13 2019, 15:12:02
Post #1

Правь статус, ####!111
**************
Group: Металариец
Posts: 17,387
Releases: 11798
From: Г.Харьков
On Forums: 7 years 1 month
Thanks: 197350 time(s)
Unknown


(IMG:https://metalarea.org/images/audiocovers/2019_Jun/acov_tid322969_thumb.jpg)

*Artist: Infrared
*Album: Back To The Warehouse [ep]
*Year: 2019
*Genre: Thrash Metal
*Country: Canada (IMG:https://metalarea.org/forum/style_images/flags/Canada.png)
*Format: mp3@CBR320kbps
*Size: 54MB

Tracklist:
1. Meet My Standards 04:58
2. One Mouth Faces 05:03
3. Hate Today, Despise Tomorrow 05:18
4. Animated Realities 06:09
5. Wrathchild 03:51
******************************
Total playing time: 25:19




Extended info
Al Groulx Drums, Vocals (backing)
Kirk Gidley Guitars, Vocals (backing)
Armin Kamal Guitars, Vocals
Mike Forbes Bass, Vocals (backing)



Technical info
(IMG:https://metalarea.org/images/spectrogram/2019_Jun/21b567b3c523681eeca672cae7948813.png)
Input File: 02. One Mouth Two Faces.mp3
Channels : 2
Sample Rate : 44100
Precision : 16-bit
Duration : 00:05:03.56 = 13387084 samples = 22767.1 CDDA sectors
File Size : 12.2M
Bit Rate : 322k
Sample Encoding: MPEG audio (layer I, II or III)
Comments :
Title=One Mouth Two Faces
Artist=Infrared
Album=Back to the Warehouse
Tracknumber=2/5
Year=2019
Genre=9
Discnumber=1/1



Register


Go to the top of the page
  Insert nick Quick quote
+Quote Post

Reply to this topicStart new topic
1 User(s) are reading this topic (1 Guests and 0 Anonymous Users)
0 Members:

 



- Lo-Fi Version Support form
Copyrights and abuse reports form
Time is now: 18th June 2019 - 05:47:38