Welcome Guest ( Log In | Register )

 
Reply to this topicStart new topic
> Necrosanct - Legacy [compilation] (2019), Death Metal (D)
post Jun 13 2019, 15:17:15
Post #1

Serial Uploader
Group Icon
Group: V.I.P
Posts: 35,414
Releases: 33626
From: Lithuania
On Forums: 11 years 1 week
Thanks: 386045 time(s)
Lithuania


(IMG:https://metalarea.org/images/audiocovers/2019_Jun/acov_tid322970_thumb.jpg)

*Artist: Necrosanct
*Album: Legacy [compilation]
*Year: 2019
*Genre: Death Metal
*Country: United Kingdom (IMG:https://metalarea.org/forum/style_images/flags/United%20Kingdom.png)
*Format: mp3@CBR320kbps
*Size: 106MB

Tracklist:
01. Plagued Min 05:25
02. Darkest Fear 04:56
03. Ex-Iternit 04:33
04. Enevitable Demis 04:21
05. Necronomico 05:27
06. Ominous Despai 03:18
07. Restless Dea 04:45
08. Undeath Dead and Dyin 02:58
09. Untitled 1 (Fast 03:49
10. Untitled 2 (Slow 06:48
******************************
Total playing time: 46:20

(IMG:https://metalarea.org/images/myspace.png)


Technical info
(IMG:https://metalarea.org/images/spectrogram/2019_Jun/1cb5d37de83370ba070bbcf4720b6cda.png)
Input File: 7 - Restless Dead.mp3
Channels : 2
Sample Rate : 44100
Precision : 16-bit
Duration : 00:04:45.09 = 12572469 samples = 21381.7 CDDA sectors
File Size : 11.5M
Bit Rate : 322k
Sample Encoding: MPEG audio (layer I, II or III)
Comments :
Title=Restless Dead
Artist=Necrosanct
Album=Opd Legacy
Tracknumber=7
Year=2019
Genre=Metal
Discnumber=1



Register


Go to the top of the page
  Insert nick Quick quote
+Quote Post

Reply to this topicStart new topic
1 User(s) are reading this topic (1 Guests and 0 Anonymous Users)
0 Members:

 



- Lo-Fi Version Support form
Copyrights and abuse reports form
Time is now: 18th June 2019 - 06:07:54