Welcome Guest ( Log In | Register )

> Parca - Obscena Agonía (2019), Death Metal
post Jun 13 2019, 15:24:18
Post #1

Serial Uploader
Group Icon
Group: V.I.P
Posts: 36,147
Releases: 34346
From: Lithuania
On Forums: 11 years 3 months
Thanks: 398459 time(s)
Lithuania


(IMG:https://metalarea.org/images/audiocovers/2019_Jun/acov_tid322971_thumb.jpg)

*Artist: Parca
*Album: Obscena Agonía
*Year: 2019
*Genre: Death Metal
*Country: Ecuador (IMG:https://metalarea.org/forum/style_images/flags/Ecuador.png)
*Format: mp3@CBR320kbps
*Size: 62MB

Tracklist:
01. Intro
02. Trago para el Muerto
03. Pena de Muerte
04. Salve Satan
05. Baila el Pornogore
06. C.H.E.P.A.
07. Guerra y Matanza
08. Plan Maestro
******************************
Total playing time: 26:58




Technical info
(IMG:https://metalarea.org/images/spectrogram/2019_Jun/065a09d1e7532d448973e98411af956c.png)
Input File: 02. Trago para el Muerto.mp3
Channels : 2
Sample Rate : 44100
Precision : 16-bit
Duration : 00:02:41.42 = 7118710 samples = 12106.6 CDDA sectors
File Size : 6.57M
Bit Rate : 325k
Sample Encoding: MPEG audio (layer I, II or III)
Comments :
Title=Trago para el Muerto
Artist=Parca
Album=Obscena Agonía
Tracknumber=2/8
Year=2019
Genre=9
Discnumber=1/1



Register


Go to the top of the page
  Insert nick Quick quote
+Quote Post
 
Start new topic
Replies (1 - 2)
post Jun 15 2019, 11:52:27
Post #2

hearer & reader
**************
Group: Металариец
Posts: 8,045
Releases: 104
From: Moscow
On Forums: 12 years 1 week
Thanks: 7527 time(s)
Russian Federation


https://music.yandex.ru/album/7617244
Go to the top of the page
  Insert nick Quick quote
+Quote Post
post Jun 17 2019, 10:53:16
Post #3

Group: Дух
Posts: 9
Releases: 0
On Forums: 3 months 3 weeks
Thanks: 0 time(s)
Ukraine


Довольно разнообразно номальная команда

Go to the top of the page
  Insert nick Quick quote
+Quote Post

Reply to this topicStart new topic
1 User(s) are reading this topic (1 Guests and 0 Anonymous Users)
0 Members:

 



- Lo-Fi Version Support form
Copyrights and abuse reports form
Time is now: 21st September 2019 - 11:52:44