Welcome Guest ( Log In | Register )

 
Reply to this topicStart new topic
> Hell Bent - Apocalyptic Lamentations (2019), Thrash Metal/Crossover/Hardcore
post Jun 13 2019, 15:26:40
Post #1

Правь статус, ####!111
**************
Group: Металариец
Posts: 18,580
Releases: 12575
From: Г.Харьков
On Forums: 7 years 4 months
Thanks: 213156 time(s)
Unknown


(IMG:https://metalarea.org/images/audiocovers/2019_Jun/acov_tid322972_thumb.jpg)

*Artist: Hell Bent
*Album: Apocalyptic Lamentations
*Year: 2019
*Genre: Thrash Metal/Crossover/Hardcore
*Country: United States (IMG:https://metalarea.org/forum/style_images/flags/United%20States.png)
*Format: mp3@CBR320kbps
*Size: 51MB

Tracklist:
1. Welcome to the Dirt 02:39
2. Oppression, Enslavement, Coersion 02:04
3. Ichthyosis 03:00
4. Pandemic 02:39
5. Cerberus Unbound 02:14
6. The Season Begins 03:29
7. Prey for War 01:53
8. Scythian Horde 02:20
9. Sledgehammer Hell Bent (Znowhite) 03:20
******************************
Total playing time: 23:38




Extended info
Shawn Bass (?-2017), Guitars (2017-present)
Brian Drums
John Guitars
Aaron Vocals
Sam Bass (2017-present)


Technical info
(IMG:https://metalarea.org/images/spectrogram/2019_Jun/6d3c8f48ad455ae7c5509c37036f293a.png)
Input File: 06. The Season Begins.mp3
Channels : 2
Sample Rate : 44100
Precision : 16-bit
Duration : 00:03:29.20 = 9225852 samples = 15690.2 CDDA sectors
File Size : 8.53M
Bit Rate : 326k
Sample Encoding: MPEG audio (layer I, II or III)
Comments :
Title=The Season Begins
Artist=Hell Bent
Album=Apocalyptic Lamentations
Tracknumber=6/9
Year=2019
Genre=9
Discnumber=1/1



Register


Go to the top of the page
  Insert nick Quick quote
+Quote Post

Reply to this topicStart new topic
1 User(s) are reading this topic (1 Guests and 0 Anonymous Users)
0 Members:

 



- Lo-Fi Version Support form
Copyrights and abuse reports form
Time is now: 21st September 2019 - 12:15:55