Welcome Guest ( Log In | Register )

> Releases Upload / Добавление релизов

Добавить релиз тут / Click here to add release
Рекомендованные обменники / Recommended file shares

 
Reply to this topicStart new topic
> Ingested - Call Of The Void [ep] (2019), Brutal Death Metal/Deathcore (D8)
post Jun 13 2019, 15:31:02
Post #1

Serial Uploader
Group Icon
Group: V.I.P
Posts: 35,414
Releases: 33626
From: Lithuania
On Forums: 11 years 1 week
Thanks: 386041 time(s)
Lithuania


(IMG:https://metalarea.org/images/audiocovers/2019_Jun/acov_tid322973_thumb.jpg)

*Artist: Ingested
*Album: Call Of The Void [ep]
*Year: 2019
*Genre: Brutal Death Metal/Deathcore
*Country: United Kingdom (IMG:https://metalarea.org/forum/style_images/flags/United%20Kingdom.png)
*Format: mp3@CBR320kbps
*Size: 40MB

Tracklist:
01. Mouth of the Abyss 04:42
02. Eternal Kingdoms - Part I 03:56
03. Eternal Kingdoms - Part II 02:53
04. The Empyrean Creed 05:50
******************************
Total playing time: 17:21

(IMG:https://metalarea.org/images/myspace.png)




Technical info
(IMG:https://metalarea.org/images/spectrogram/2019_Jun/325adad1a6589f97bc0844fce4e50e94.png)
Input File: 2 - Eternal Kingdoms, Pt. 1.mp3
Channels : 2
Sample Rate : 44100
Precision : 16-bit
Duration : 00:03:57.23 = 10461887 samples = 17792.3 CDDA sectors
File Size : 9.53M
Bit Rate : 321k
Sample Encoding: MPEG audio (layer I, II or III)
Comments :
Title=Eternal Kingdoms, Pt. 1
Artist=Ingested
Album=Call of the Void
Tracknumber=2
Year=2019
Genre=Metal
Discnumber=1



Register


Go to the top of the page
  Insert nick Quick quote
+Quote Post

Reply to this topicStart new topic
1 User(s) are reading this topic (1 Guests and 0 Anonymous Users)
0 Members:

 



- Lo-Fi Version Support form
Copyrights and abuse reports form
Time is now: 18th June 2019 - 05:39:02