Welcome Guest ( Log In | Register )

> Soulshifter - My Weak Heart [ep] (2019), Melodic Death Metal
post Jun 13 2019, 15:38:39
Post #1

Serial Uploader
Group Icon
Group: V.I.P
Posts: 35,815
Releases: 34022
From: Lithuania
On Forums: 11 years 2 months
Thanks: 393158 time(s)
Lithuania


(IMG:https://metalarea.org/images/audiocovers/2019_Jun/acov_tid322974_thumb.jpg)

*Artist: Soulshifter
*Album: My Weak Heart [ep]
*Year: 2019
*Genre: Melodic Death Metal
*Country: Germany (IMG:https://metalarea.org/forum/style_images/flags/Germany.png)
*Format: mp3@CBR320kbps
*Size: 68MB

Tracklist:
01. Cut the Silvercord
02. Soulshift
03. Reality Is More Evil Than a Demon
04. Abyss of the Soul
05. My Weak Heart
06. Ballad of a Carnivore
07. Withered Rose
******************************
Total playing time: 29:35



Technical info
(IMG:https://metalarea.org/images/spectrogram/2019_Jun/3ec035d2a0813349788315faa6a421d6.png)
Input File: 02. Soulshift.mp3
Channels : 2
Sample Rate : 44100
Precision : 16-bit
Duration : 00:04:42.48 = 12457368 samples = 21186 CDDA sectors
File Size : 11.4M
Bit Rate : 323k
Sample Encoding: MPEG audio (layer I, II or III)
Comments :
Title=Soulshift
Artist=Soulshifter
Album=My Weak Heart
Tracknumber=2/7
Year=2019
Genre=9
Discnumber=1/1



Register


Go to the top of the page
  Insert nick Quick quote
+Quote Post
 
Start new topic
Replies (1 - 3)
post Jun 13 2019, 18:48:57
Post #2

Маньяк
**********
Group: Металариец
Posts: 1,230
Releases: 0
From: Russian Federation - St.Petersburg
On Forums: 10 years 5 months
Thanks: 285 time(s)
Russian Federation


(IMG:style_emoticons/default/17.gif)
https://www.youtube.com/watch?v=wqxHRzX7goU


Thanks:
Go to the top of the page
  Insert nick Quick quote
+Quote Post
post Jun 14 2019, 15:04:29
Post #3

Три Литра
***
Group: Завсегдатай
Posts: 288
Releases: 4
On Forums: 12 years 4 months
Thanks: 231 time(s)
Russian Federation


Сочный звук (IMG:style_emoticons/default/headcrab.png)
Go to the top of the page
  Insert nick Quick quote
+Quote Post
post Jun 15 2019, 04:25:01
Post #4

Ъ
**************
Group: Металариец
Posts: 9,632
Releases: 9
On Forums: 10 years 7 months
Thanks: 1875 time(s)
Sweden


Кроме звука ничего и нет, проходняк.


Thanks:
(1) AHBAnep,
Go to the top of the page
  Insert nick Quick quote
+Quote Post

Reply to this topicStart new topic
2 User(s) are reading this topic (2 Guests and 0 Anonymous Users)
0 Members:

 



- Lo-Fi Version Support form
Copyrights and abuse reports form
Time is now: 19th August 2019 - 06:44:03