Welcome Guest ( Log In | Register )

> Releases Upload / Добавление релизов

Добавить релиз тут / Click here to add release
Рекомендованные обменники / Recommended file shares

> Eagle Shadow Fist - Silent Assassin (2018), Thrash Metal
post Jun 13 2019, 17:29:41
Post #1

Правь статус, ####!111
**************
Group: Металариец
Posts: 17,395
Releases: 11800
From: Г.Харьков
On Forums: 7 years 1 month
Thanks: 197445 time(s)
Unknown


(IMG:https://metalarea.org/images/audiocovers/2019_Jun/acov_tid322976_thumb.jpg)

*Artist: Eagle Shadow Fist
*Album: Silent Assassin
*Year: 2018
*Genre: Thrash Metal
*Country: Germany (IMG:https://metalarea.org/forum/style_images/flags/Germany.png)
*Format: mp3@CBR320kbps
*Size: 96MB

Tracklist:
1. Triumph and Loss 04:38
2. Faith Injustice 04:05
3. Silent Assassin 05:59
4. Fire Thorn 05:55
5. Collide and Confront 05:57
6. Pure Scars 04:53
7. Fate Dealer 05:08
8. Prelude to War 01:01
9. Warkiller 04:14
******************************
Total playing time: 41:50




Technical info
(IMG:https://metalarea.org/images/spectrogram/2019_Jun/c716d40845ef48dc5001a4b05eaebca5.png)
Input File: 03 Silent Assassin.mp3
Channels : 2
Sample Rate : 44100
Precision : 16-bit
Duration : 00:05:59.99 = 15875427 samples = 26999 CDDA sectors
File Size : 14.5M
Bit Rate : 321k
Sample Encoding: MPEG audio (layer I, II or III)
Comments :
Title=Silent Assassin
Artist=Eagle Shadow Fist
Album=Silent Assassin
Tracknumber=3
Year=2018



Register


Go to the top of the page
  Insert nick Quick quote
+Quote Post
 
Start new topic
Replies (1 - 1)
post Jun 13 2019, 22:38:28
Post #2

Два Литра
**
Group: Завсегдатай
Posts: 115
Releases: 0
On Forums: 12 years 2 months
Thanks: 90 time(s)
Russian Federation


Go to the top of the page
  Insert nick Quick quote
+Quote Post

Reply to this topicStart new topic
1 User(s) are reading this topic (1 Guests and 0 Anonymous Users)
0 Members:

 



- Lo-Fi Version Support form
Copyrights and abuse reports form
Time is now: 18th June 2019 - 18:54:54