Welcome Guest ( Log In | Register )

> Releases Upload / Добавление релизов

Добавить релиз тут / Click here to add release
Рекомендованные обменники / Recommended file shares

 
Reply to this topicStart new topic
> Shxttered - Fleshless King (2019), Deathcore
post Jun 13 2019, 19:45:44
Post #1

SHEMHAMFORASH
**************
Group: Металариец
Posts: 2,266
Releases: 846
From: Москва
On Forums: 13 years 1 month
Thanks: 8482 time(s)
Russian Federation


(IMG:https://metalarea.org/images/audiocovers/2019_Jun/acov_tid322977_thumb.jpg)

*Artist: Shxttered
*Album: Fleshless King
*Year: 2019
*Genre: Deathcore
*Country: United States (IMG:https://metalarea.org/forum/style_images/flags/United%20States.png)
*Format: mp3@CBR320kbps
*Size: 64MB

Tracklist:
01. Purge 3:14
02. Gnashing of Teeth (Ft. Cj McCreery Of Lorna Shore) 2:48
03. Grave Planet 3:27
04. Soul Harvest 2:09
05. Intermission // Innermission 1:20
06. Toll the Dead 2:31
07. The Cycle 3:12
08. Transcendence 3:17
09. Dark World (Ft. Chris Whited) (Bonus Track) 2:38
******************************
Total playing time: 24:36

Preview 1

Technical info
(IMG:https://metalarea.org/images/spectrogram/2019_Jun/2e64e093dfccef5c643b4da0c019edc4.png)
Input File: Shxttered - Fleshless King - 01. Purge.mp3
Channels : 2
Sample Rate : 44100
Precision : 16-bit
Duration : 00:03:13.22 = 8520782 samples = 14491.1 CDDA sectors
File Size : 8.34M
Bit Rate : 345k
Sample Encoding: MPEG audio (layer I, II or III)
Comments :
Title=Purge
Artist=Shxttered
Album=Fleshless King
Tracknumber=01
Year=2019
Genre=Metal



Register


Thanks:
Go to the top of the page
  Insert nick Quick quote
+Quote Post

Reply to this topicStart new topic
1 User(s) are reading this topic (1 Guests and 0 Anonymous Users)
0 Members:

 



- Lo-Fi Version Support form
Copyrights and abuse reports form
Time is now: 18th June 2019 - 17:58:17