Welcome Guest ( Log In | Register )

> Releases Upload / Добавление релизов

Добавить релиз тут / Click here to add release
Рекомендованные обменники / Recommended file shares

 
Reply to this topicStart new topic
> Decayer - Decayer [ep] (2017), Deathcore (D6)
post Jun 13 2019, 19:59:43
Post #1

SHEMHAMFORASH
**************
Group: Металариец
Posts: 2,266
Releases: 846
From: Москва
On Forums: 13 years 1 month
Thanks: 8482 time(s)
Russian Federation


(IMG:https://metalarea.org/images/audiocovers/2019_Jun/acov_tid322978_thumb.jpg)

*Artist: Decayer
*Album: Decayer [ep]
*Year: 2017
*Genre: Deathcore
*Country: United States (IMG:https://metalarea.org/forum/style_images/flags/United%20States.png)
*Format: mp3@CBR320kbps
*Size: 34MB

Tracklist:
01. Death Tolerance 1:22
02. Dog-Whistle 2:59
03. Blasphemers 3:15
04. Hate Chancellor 3:00
05. Attainment Ladder 3:22
******************************
Total playing time: 13:58

(IMG:https://metalarea.org/images/youtube.png)

Technical info
(IMG:https://metalarea.org/images/spectrogram/2019_Jun/48a9711e3a08dd25ff2178e49e3e2710.png)
Input File: 02 Dog-Whistle.mp3
Channels : 2
Sample Rate : 44100
Precision : 16-bit
Duration : 00:02:58.58 = 7875466 samples = 13393.6 CDDA sectors
File Size : 7.24M
Bit Rate : 324k
Sample Encoding: MPEG audio (layer I, II or III)
Comments :
Title=Dog-Whistle
Artist=Decayer
Album=Decayer
Tracknumber=2
Year=2017



Register


Thanks:
Go to the top of the page
  Insert nick Quick quote
+Quote Post

Reply to this topicStart new topic
1 User(s) are reading this topic (1 Guests and 0 Anonymous Users)
0 Members:

 



- Lo-Fi Version Support form
Copyrights and abuse reports form
Time is now: 18th June 2019 - 06:51:32