Welcome Guest ( Log In | Register )

> Releases Upload / Добавление релизов

Добавить релиз тут / Click here to add release
Рекомендованные обменники / Recommended file shares

 
Reply to this topicStart new topic
> Faith - Every Day I Am Waiting For You (Part I) (2018), Atmospheric Doom/Post-Metal/Instrumental (D10)
post Jun 13 2019, 20:47:31
Post #1

Девять Литров
*********
Group: Металариец
Posts: 936
Releases: 786
From: Новороссийск
On Forums: 8 years 1 month
Thanks: 13662 time(s)
Russian Federation


(IMG:https://metalarea.org/images/audiocovers/2019_Jun/acov_tid322979_thumb.jpg)

*Artist: Faith
*Album: Every Day I Am Waiting For You (Part I)
*Year: 2018
*Genre: Atmospheric Doom/Post-Metal/Instrumental
*Country: Russian Federation (IMG:https://metalarea.org/forum/style_images/flags/Russian%20Federation.png)
*Format: mp3@CBR320kbps
*Size: 84MB

Tracklist:
01. I Remember 10:34
02. Every Day I Am Waiting For You 12:34
03. The Road In My Sorrow 13:34
******************************
Total playing time: 36:43


Preview 2

Technical info
(IMG:https://metalarea.org/images/spectrogram/2019_Jun/eb854f784593a2414ca9ed353e0117b3.png)
Input File: 01. I Remember.mp3
Channels : 2
Sample Rate : 44100
Precision : 16-bit
Duration : 00:10:34.21 = 27968793 samples = 47566 CDDA sectors
File Size : 25.4M
Bit Rate : 320k
Sample Encoding: MPEG audio (layer I, II or III)
Comments :
Title=I Remember
Artist=Faith
Album=Every Day I Am Waiting for You (Part I)
Tracknumber=01
Year=2018
Genre=Post-Metal



Register


Thanks:
Go to the top of the page
  Insert nick Quick quote
+Quote Post

Reply to this topicStart new topic
1 User(s) are reading this topic (1 Guests and 0 Anonymous Users)
0 Members:

 



- Lo-Fi Version Support form
Copyrights and abuse reports form
Time is now: 18th June 2019 - 18:10:43