Welcome Guest ( Log In | Register )

 
Reply to this topicStart new topic
> Repugnant Scum - Adapt Or Burn (2019), Blackened Death Metal/Grindcore
post Jun 13 2019, 21:14:18
Post #1

Правь статус, ####!111
**************
Group: Металариец
Posts: 18,579
Releases: 12575
From: Г.Харьков
On Forums: 7 years 4 months
Thanks: 213156 time(s)
Unknown


(IMG:https://metalarea.org/images/audiocovers/2019_Jun/acov_tid322981_thumb.jpg)

*Artist: Repugnant Scum
*Album: Adapt Or Burn
*Year: 2019
*Genre: Blackened Death Metal/Grindcore
*Country: Canada (IMG:https://metalarea.org/forum/style_images/flags/Canada.png)
*Format: mp3@CBR320kbps
*Size: 81MB

Tracklist:
1. Abysmal Cruelty 04:25
2. Headbutted Into Oblivion 02:55
3. Fading 00:57
4. Evolutionary Flesh Render 03:01
5. Become The Scum 06:29
6. Ver-man 01:50
7. Bred For The Pit 02:43
8. The Ruiner 03:19
9. Brown Blood Boots 05:28
10. Human Inconsistency 04:26
******************************
Total playing time: 35:33




Extended info
Guitar and Vocals: Dustin Moysey
Bass and Vocals: Geoff Stickles
Drums and Backing Vocals: Cody Hills


Technical info
(IMG:https://metalarea.org/images/spectrogram/2019_Jun/388515ef3618d0c0027955e68bfc74c9.png)
Input File: 05. Become the Scum.mp3
Channels : 2
Sample Rate : 44100
Precision : 16-bit
Duration : 00:06:29.93 = 17195869 samples = 29244.7 CDDA sectors
File Size : 15.6M
Bit Rate : 320k
Sample Encoding: MPEG audio (layer I, II or III)
Comments :
Title=Become the Scum
Artist=Repugnant Scum
Album=Adapt or Burn
Tracknumber=5
Year=2019
Genre=Death Metal



Register


Go to the top of the page
  Insert nick Quick quote
+Quote Post

Reply to this topicStart new topic
1 User(s) are reading this topic (1 Guests and 0 Anonymous Users)
0 Members:

 



- Lo-Fi Version Support form
Copyrights and abuse reports form
Time is now: 21st September 2019 - 11:53:49