Welcome Guest ( Log In | Register )

> Releases Upload / Добавление релизов

Добавить релиз тут / Click here to add release
Рекомендованные обменники / Recommended file shares

 
Reply to this topicStart new topic
> Celesterre - A Blooming Spring [demo] (2014), Progressive/Heavy/Black/Doom Metal
post Jun 13 2019, 22:24:46
Post #1

ретроград
**************
Group: Металариец
Posts: 4,745
Releases: 177
On Forums: 11 years 11 months
Thanks: 6957 time(s)
Vatican City


(IMG:http://metalarea.org/images/audiocovers/2019_Jun/acov_tid322982_thumb.jpg)

*Artist: Celesterre
*Album: A Blooming Spring [demo]
*Year: 2014
*Genre: Progressive/Heavy/Black/Doom Metal
*Country: Netherlands (IMG:http://metalarea.org/forum/style_images/flags/Netherlands.png)
*Format: mp3@CBR320kbps
*Size: 66MB

Tracklist:
1. Celesterre Burns in Gold 06:18
2. The Droning Earth 04:44
3. A Blooming Spring 07:16
4. Vegetation Terror 05:43
5. Dust 03:31
******************************
Total playing time: 27:32



Technical info
(IMG:http://metalarea.org/images/spectrogram/2019_Jun/1b820fca6d79d67a34759141d7f4b3c4.png)
Input File: celesterre-02-the-droning-earth.mp3
Channels : 2
Sample Rate : 44100
Precision : 16-bit
Duration : 00:04:44.78 = 12558754 samples = 21358.4 CDDA sectors
File Size : 11.5M
Bit Rate : 323k
Sample Encoding: MPEG audio (layer I, II or III)
Comments :
Title=The Droning Earth
Artist=Celesterre
Album=A Blooming Spring
Tracknumber=2
Year=2014



Register


Go to the top of the page
  Insert nick Quick quote
+Quote Post

Reply to this topicStart new topic
1 User(s) are reading this topic (1 Guests and 0 Anonymous Users)
0 Members:

 



- Lo-Fi Version Support form
Copyrights and abuse reports form
Time is now: 16th June 2019 - 08:23:31