Welcome Guest ( Log In | Register )

 
Reply to this topicStart new topic
> Slomatics - Canyons (2019), Sludge/Doom Metal (D)
post Jun 13 2019, 23:46:32
Post #1

Правь статус, ####!111
**************
Group: Металариец
Posts: 18,579
Releases: 12575
From: Г.Харьков
On Forums: 7 years 4 months
Thanks: 213156 time(s)
Unknown


(IMG:https://metalarea.org/images/audiocovers/2019_Jun/acov_tid322983_thumb.jpg)

*Artist: Slomatics
*Album: Canyons
*Year: 2019
*Genre: Sludge/Doom Metal
*Country: United Kingdom (IMG:https://metalarea.org/forum/style_images/flags/United%20Kingdom.png)
*Format: mp3@CBR320kbps
*Size: 103MB

Tracklist:
1. Gears of Despair 10:04
2. Cosmic Guilt 04:34
3. Seven Echoes 01:20
4. Telemachus My Son 08:24
5. Beyond the Canopy 08:14
6. Arms of the Sun 02:17
7. Mind Fortress on Theia 06:04
8. Organic Caverns II 07:31
******************************
Total playing time: 48:28




Extended info
Chris Guitars
David Guitars
Marty Drums, Vocals


Technical info
(IMG:https://metalarea.org/images/spectrogram/2019_Jun/e7a7a64660a4e3777f1729e30b3cad14.png)
Input File: 04 - Telemachus My Son.mp3
Channels : 2
Sample Rate : 44100
Precision : 16-bit
Duration : 00:07:38.79 = 20232507 samples = 34409 CDDA sectors
File Size : 18.4M
Bit Rate : 321k
Sample Encoding: MPEG audio (layer I, II or III)
Comments :
Title=Telemachus My Son
Artist=Slomatics
Album=Canyons
Tracknumber=4
Year=2019
Genre=Metal
Discnumber=1



Register


Go to the top of the page
  Insert nick Quick quote
+Quote Post

Reply to this topicStart new topic
1 User(s) are reading this topic (1 Guests and 0 Anonymous Users)
0 Members:

 



- Lo-Fi Version Support form
Copyrights and abuse reports form
Time is now: 21st September 2019 - 11:57:31